down

Publicidad


https://www.amazon.es/?tag=videoedicion-21&linkCode=ez

Si compras en Amazon, puedes colaborar pinchando en este banner y haciendo tu compra a continuación. De esa manera obtendremos una comisión  por cada venta confirmada. Más info aquí: ¡Gracias por tu colaboración! :-)

* Usuario

 
 
Bienvenido(a), Visitante. Por favor, ingresa o regístrate. ¿Perdiste tu email de activación?

* Calendario

Julio 2020
Dom Lun Mar Mié Jue Vie Sáb
1 2 3 4
5 6 7 8 9 10 11
12 13 14 15 [16] 17 18
19 20 21 22 23 24 25
26 27 28 29 30 31

No hay eventos en el calendario.

* Conectados

No puedo reproducir un MP4

Iniciado por DJ_Finfan, 23 de Enero de 2020, 15:59:19

Tema anterior - Siguiente tema

DJ_Finfan

Hola, me han pasado un vídeo cuyas características pego aquí debajo, que no puedo reproducir debidamente. He probado con un montón de visualizadores (VLC, MPC-HX, Nero show time, Windows media player....etc) y tengo los últimos codecs de k-lite (v.15.3.5 Mega) instalados. El sonido deja de oirse a partir de un minuto o así, y el vídeo empieza bien, pero al de poco aparecen los tirones, se pixelan fragmentos de la imagen. Vamos, que no se puede ver debidamente. ¿Por qué puede ser?

General
Complete name              : L:\ttttttt_2017.mp4
Format                      : MPEG-4
Format profile              : Base Media / Version 2
Codec ID                    : mp42 (mp42/mp41)
File size                  : 9.82 GiB
Duration                    : 32 min 4 s
Overall bit rate mode      : Variable
Overall bit rate            : 43.8 Mb/s
Encoded date                : UTC 2017-12-01 10:20:32
Tagged date                : UTC 2017-12-01 10:23:57
TIM                        : 00:03:37:34
TSC                        : 50
TSZ                        : 1

Video
ID                          : 1
Format                      : AVC
Format/Info                : Advanced Video Codec
Format profile              : Main@L4.2
Format settings            : CABAC / 3 Ref Frames
Format settings, CABAC      : Yes
Format settings, Reference  : 3 frames
Codec ID                    : avc1
Codec ID/Info              : Advanced Video Coding
Duration                    : 32 min 4 s
Bit rate                    : 43.6 Mb/s
Width                      : 1 920 pixels
Height                      : 1 080 pixels
Display aspect ratio        : 16:9
Frame rate mode            : Constant
Frame rate                  : 50.000 FPS
Standard                    : PAL
Color space                : YUV
Chroma subsampling          : 4:2:0
Bit depth                  : 8 bits
Scan type                  : Progressive
Bits/(Pixel*Frame)          : 0.421
Stream size                : 9.78 GiB (100%)
Language                    : English
Encoded date                : UTC 2017-12-01 10:20:32
Tagged date                : UTC 2017-12-01 10:20:32
Color range                : Limited
Color primaries            : BT.709
Transfer characteristics    : BT.709
Matrix coefficients        : BT.709
Codec configuration box    : avcC

Audio
ID                          : 2
Format                      : AAC LC
Format/Info                : Advanced Audio Codec Low Complexity
Codec ID                    : mp4a-40-2
Duration                    : 32 min 4 s
Source duration            : 32 min 4 s
Bit rate mode              : Variable
Bit rate                    : 560 Mb/s
Nominal bit rate            : 189 kb/s
Maximum bit rate            : 305 kb/s
Channel(s)                  : 2 channels
Channel layout              : L R
Sampling rate              : 48.0 kHz
Frame rate                  : 46.875 FPS (1024 SPF)
Compression mode            : Lossy
Stream size                : 126 GiB
Source stream size          : 126 GiB
Language                    : English
Encoded date                : UTC 2017-12-01 10:20:32
Tagged date                : UTC 2017-12-01 10:20:32


Un saludo y gracias de antemano.

ramon.cutanda

Si fallan todos esos reproductores, y si has probado en otros equipos también, bien podría ser un archivo corrupto, ya sea por fallo en el soporte de almacenamiento, copia o durante su descarga de internet. 

El archivo tiene un bitrate algo más alto de lo normal; pero tampoco nada del otro mundo. Cualquier equipo medianamente moderno debería reproducirlo sin problemas, pero un disco duro fragmentado o una CPU/GPU limitada también podrían ser el problema.

Saludos,

Powered by SMFPacks Menu Editor Mod
Powered by SMFPacks Media Embedder