PUBLICIDAD

Welcome to videoedicion.org (v8.2.1). Please login or sign up.

04 de Diciembre de 2022, 20:10:17

Login with username, password and session length

PUBLICIDAD

Temas Recientes

31 Visitantes, 1 Usuario

PUBLICIDAD

Compra y colabora

Si usas estos banners para hacer tus compras, recibiremos una pequeña comisión. ¡Gracias por colaborar!


 




Código VID15 para
un 15% en planes anuales


problemas con renderización........mejores parámetros

Iniciado por lis, 26 de Agosto de 2013, 17:13:56

Tema anterior - Siguiente tema

lis

Hola a todos, hace siglos que no paso por aqui.... voy muy liada.... pero que sepáis que cuando tengo una duda...........lo primero... vosotros..... siento no aportar nada solo pedir ::)


Dicho esto me da vergüenza preguntar sobre el renderizado cuando se que hay mil cosas escritas sobre ello......pero es que.... no me aclaro.... por favor, algún alma caritativa que me diga sus configuraciones.... desde que cambié a vegas 12 que no doy una......(lista de mi, no me guardé las  configuraciones que ya tenía hechas).


Bien mi cámara grava en:



Format                           : MPEG-TS
Format_Commercial_IfAny          : HDV 1080i
File size                        : 3.16 GiB
Duration                         : 17mn 18s
Start time                       : UTC 165-25-45 45:85:85
End time                         : UTC 165-25-45 45:85:85
Overall bit rate                 : 26.1 Mbps
Maximum Overall bit rate         : 33.0 Mbps
Encoded date                     : UTC 165-25-45 45:85:85


Video
ID                               : 2064 (0x810)
Menu ID                          : 100 (0x64)
Format                           : MPEG Video
Format_Commercial_IfAny          : HDV 1080i
Format version                   : Version 2
Format profile                   : Main@High 1440
Format settings, BVOP            : Yes
Format settings, Matrix          : Default
Format settings, GOP             : M=3, N=12
Codec ID                         : 2
Duration                         : 17mn 17s
Bit rate mode                    : Constant
Bit rate                         : 25.0 Mbps
Width                            : 1 440 pixels
Height                           : 1 080 pixels
Display aspect ratio             : 16:9
Frame rate                       : 25.000 fps
Standard                         : Component
Color space                      : YUV
Chroma subsampling               : 4:2:0
Bit depth                        : 8 bits
Scan type                        : Interlaced
Scan order                       : Top Field First
Compression mode                 : Lossy
Bits/(Pixel*Frame)               : 0.643
Stream size                      : 2.96 GiB (94%)


Audio
ID                               : 2068 (0x814)
Menu ID                          : 100 (0x64)
Format                           : MPEG Audio
Format version                   : Version 1
Format profile                   : Layer 2
Codec ID                         : 3
Duration                         : 17mn 17s
Bit rate mode                    : Constant
Bit rate                         : 384 Kbps
Channel(s)                       : 2 channels
Sampling rate                    : 48.0 KHz
Compression mode                 : Lossy
Delay relative to video          : -80ms
Stream size                      : 47.5 MiB (1%)


Y necesito exportar en dos formatos, uno para vimeo, youtube, etc. a mayor calidad, y obviamente menos peso.


Y otro a DVD, para ver, por ejemplo, a través de una playstation.....


Hasta ahora lo del dvd lo hacia en mpg2 y audio ac3 y luego en el dvd architect..... pero es que ahora.......se ve fatal.......el que antes renderizaba para vimeo, en la tele se veía perfecto......pues ahora, ni ese se ve bien........... no se explicar como se ve.... pero fatal.... como los videos son de futbol, pues en movimientos rapidos, como un poco de raya... y pequeñines saltos....vaya que no es nítido....


y ya no se si los campos fusionados....o interpolados......... que si adaptar proyecto a configuración de video... que ni asi sale.......no se...


por favor, me podríais decir, que parámetros ponéis vosotros para renderizar.


Y mil perdones por preguntar esto, que seguro está en algún post, pero de los que he leído, no hay ningungo que me quite dudas....(por cierto, la mayoría configuran en ntsc..... (y son españoles) no debería ser en pal?????


Gracias de antemano por vuestra ayuda, y a seguir disfrutando de las vacaciones.  :-*

PUBLICIDAD

El spam de este foro está controlado por CleanTalk