collapse

Publicidad

Reportar al moderador

No hay moderadores "de oficio" revisando los mensajes publicados en los foros. Sin embargo, se actúa con la máxima diligencia posible cuando alguien reporta algún contenido inapropiado.
Por favor, ayuda a mantener el foro en orden usando la opción "Reportar al moderador" que encontrarás en la esquina inferior derecha de cada mensaje siempre que lo estimes conveniente. Gracias.

Se buscan voluntarios que ayuden a etiquetar mensajes

Se buscan voluntarios que ayuden a etiquetar mensajes ¡Gracias!

[ Más información aquí ]

Tus datos

Bienvenido(a), Visitante. Por favor, ingresa o regístrate. ¿Perdiste tu email de activación?

Publicidad

Calendario

Septiembre 2019
Dom Lun Mar Mié Jue Vie Sáb
1 2 3 4 5 6 7
8 9 10 11 12 13 14
15 16 17 18 19 20 21
[22] 23 24 25 26 27 28
29 30

No se encontraron eventos en el calendario.

Lo último del foro

Re:Cómo poner otra vez el icono de transiciones y la previsualización a la derecha? por XarquS
[Hoy a las 00:19:53]


Re:Cómo poner otra vez el icono de transiciones y la previsualización a la derecha? por easton
[Ayer a las 17:37:05]


Re:Cómo poner otra vez el icono de transiciones y la previsualización a la derecha? por askan
[Ayer a las 15:13:16]


Cómo poner otra vez el icono de transiciones y la previsualización a la derecha? por easton
[Ayer a las 13:53:29]


Re:Se borraron proyectos de Premier al instalar After Effects por Poucopelo
[Ayer a las 10:58:18]


Re:Se borraron proyectos de Premier al instalar After Effects por Poucopelo
[Ayer a las 10:54:19]


Re:Se borraron proyectos de Premier al instalar After Effects por Rafavision
[Ayer a las 08:53:02]


Re:Problemas al renderizar en el Sony Vegas Pro 13. por alado
[Ayer a las 05:50:18]


Nuevo foco Wescott Solix Bi-Color con un 45% más de luminosidad por ramon.cutanda
[20 de Septiembre de 2019, 18:01:56]


Re:Se borraron proyectos de Premier al instalar After Effects por fistros
[20 de Septiembre de 2019, 12:02:18]


Re:Se borraron proyectos de Premier al instalar After Effects por Rafavision
[20 de Septiembre de 2019, 11:26:29]


Re:¿Es posible capturar la ventana de otra pc a través de un cable HDMI a USB? por Poucopelo
[20 de Septiembre de 2019, 10:26:07]


Re:Se borraron proyectos de Premier al instalar After Effects por Poucopelo
[19 de Septiembre de 2019, 23:57:32]


Se borraron proyectos de Premier al instalar After Effects por Rafavision
[19 de Septiembre de 2019, 23:34:37]


Re:¿Es posible capturar la ventana de otra pc a través de un cable HDMI a USB? por bantuito
[19 de Septiembre de 2019, 20:45:20]


Usuarios conetados

  • Punto Visitantes: 25
  • Punto Oculto: 0
  • Punto Usuarios: 0

No hay usuarios en linea.

Estadísticas

  • stats Total de Usuarios: 54,953
  • stats Total de Mensajes: 446,956
  • stats Total de Temas: 77,229
  • stats Total de Categorías: 6
  • stats Total de Foros: 121
  • stats Máx. usuarios conectados (simultáneamente): 507

Publicidad

 Cuando renderizas con procesador sin grafica integrada, ¿renderiza la gpu?

Iniciado por tretocephalus, 28 de Junio de 2019, 11:47:22

Tema anterior - Siguiente tema

tretocephalus

Muy buenas, he cambiado de ordenador y he puesto un procesador ryzen 2600 sin grafica integrada y una tarjeta grafica asus rx 560.

Cuando renderizo, el administrador de tareas me dice que el procesador está sobre el 60% mientras que la tarjeta grafica se queda en el 6%.

Quiere decir esto que el procesador está renderizando, ¿o no puede ser ya que el procesador no tiene tarjeta grafica?

Saludos

XarquS

Sí; está renderizando mediante el procesador pero usando el compresor por software.

X.
"...a pesar de ellos, yo soy del Sur y de la mar" (María Zambrano).

lanchone

En el Vegas 15,si renderizas con el template Magic AMD VCE, si aprovecha la gráfica.

tretocephalus

Así es como lo estaba haciendo lanchone, pero por lo que veo no renderiza con la grafica.

Y para mas inri, no se que pasa ahora que cuando intento renderizar con esta configuración, que es la que solía utilizar en el otro pc, me sale un aviso y no me deja.





¿Me podeis recomendar una configuración que renderice en maxima calidad sin importar el peso final del archivo y que lo haga con la grafica?

Saludos

lanchone

Yo renderizo a HD, y no tengo problema.

De todas formas, a mí particularmente no me importa la velocidad de renderizado, es más, hago el render final con el códec x264, siguiendo el manual del maestro Xarcus.

Más me gustaría que la GPU ayudase a una reproducción mas fluida en el timeline, sobretodo cuando le aplicas algún filtro o transición compleja, que es donde creo Vegas debería evolucionar ( guardar selective prerenders?, Se puede hacer?)

Mirando en Wikipedia, no se ver si tú gráfica es compatible con el AMD VCE:

https://en.m.wikipedia.org/wiki/Video_Coding_Engine

A ver qué te responden los "gurús" del foro oficial.

Saludos

XarquS

¿Y que pasa si usas una de las plantillas 4K por defecto? Digo de las que ponen (AMD VCE).

El aviso que da Vegas suele ser cuando ponemos algún parámetro erróneo o fuera de estandard al codificador.

X.
"...a pesar de ellos, yo soy del Sur y de la mar" (María Zambrano).

tretocephalus

He hecho la prueba con esta plantilla y renderiza correctamente, si usaba la otra es por que hace tiempo me dijiste que para mi video de salida me daría buena calidad de imagen.



Esta plantilla, que te parece, crees que debo cambiar algo ¿o así está bien?

Te voy a poner los datos de mediainfo por si me puedes ayudar:

Format                      : MPEG-4
Format profile              : Base Media
Codec ID                    : isom (isom)
File size                  : 21.5 GiB
Duration                    : 50 min 16 s
Overall bit rate mode      : Variable
Overall bit rate            : 61.1 Mb/s
Encoded date                : UTC 2019-05-09 14:00:41
Tagged date                : UTC 2019-05-09 14:00:41

Video
ID                          : 1
Format                      : AVC
Format/Info                : Advanced Video Codec
Format profile              : High@L5.1
Format settings            : CABAC / 2 Ref Frames
Format settings, CABAC      : Yes
Format settings, Reference  : 2 frames
Codec ID                    : avc1
Codec ID/Info              : Advanced Video Coding
Duration                    : 50 min 16 s
Source duration            : 50 min 16 s
Bit rate mode              : Variable
Bit rate                    : 60.8 Mb/s
Maximum bit rate            : 70.0 Mb/s
Width                      : 3 840 pixels
Height                      : 2 160 pixels
Display aspect ratio        : 16:9
Frame rate mode            : Variable
Frame rate                  : 25.000 FPS
Minimum frame rate          : 19.737 FPS
Maximum frame rate          : 25.007 FPS
Color space                : YUV
Chroma subsampling          : 4:2:0
Bit depth                  : 8 bits
Scan type                  : Progressive
Bits/(Pixel*Frame)          : 0.293
Stream size                : 21.4 GiB (100%)
Source stream size          : 21.4 GiB (100%)
Language                    : Spanish
Encoded date                : UTC 2019-05-06 15:48:28
Tagged date                : UTC 2019-05-09 14:17:41
Color range                : Limited
Color primaries            : BT.709
Transfer characteristics    : BT.709
Matrix coefficients        : BT.709
Codec configuration box    : avcC

Audio
ID                          : 2
Format                      : AAC LC
Format/Info                : Advanced Audio Codec Low Complexity
Codec ID                    : mp4a-40-2
Duration                    : 50 min 16 s
Source duration            : 50 min 16 s
Bit rate mode              : Variable
Bit rate                    : 253 kb/s
Maximum bit rate            : 259 kb/s
Channel(s)                  : 2 channels
Channel layout              : L R
Sampling rate              : 48.0 kHz
Frame rate                  : 46.875 FPS (1024 SPF)
Compression mode            : Lossy
Stream size                : 91.1 MiB (0%)
Source stream size          : 91.1 MiB (0%)
Language                    : Spanish
Encoded date                : UTC 2019-05-06 15:48:28
Tagged date                : UTC 2019-05-09 14:17:41

XarquS

Bueno, al menos sabes ya que te funciona.


Cita de: tretocephalus en 29 de Junio de 2019, 20:57:10si usaba la otra es por que hace tiempo me dijiste que para mi video de salida me daría buena calidad de imagen.


Yo no tengo culpa de que hagas cambios relevantes en tu equipo :-)


CitarEsta plantilla, que te parece, crees que debo cambiar algo ¿o así está bien?


La plantilla estará o no bien según lo que tus ojos y oído perciban y no sirve para todo tipo de video. Si te funciona y lo ves bien, esa es la buena. Pero creo que el mejor consejo que podría darte es que deberías invertir un poco más de tiempo en aprender cosas básicas relacionadass con la compresión y no depender tanto de lo que te digamos unos u otros y plantillas prefabricadas. Permíteme que insista: las plantillas no funcionan igual en todos los videos.


CitarTe voy a poner los datos de mediainfo por si me puedes ayudar:


No entiendo bien en qué te puedo ayudar poniendo el mediainfo; no soy ingeniero, soy editor y más sin saber si los datos son del video original o el renderizado. De todos modos se puede ver un dato escalofriante como es que el frame rate es variable. Esto es algo que casi siempre ocasiona tener que llamar a Houston con el famoso "tenemos un problema" :-)

X.
"...a pesar de ellos, yo soy del Sur y de la mar" (María Zambrano).

XarquS

Cita de: lanchone en 29 de Junio de 2019, 16:38:16creo Vegas debería evolucionar ( guardar selective prerenders?, Se puede hacer?)
Evolucionó hace milenios siendo el primero en algunos avances, pero solo lo sabemos los usuarios más proletarios :-) Los aristócratas usan otros más guays con mucho postin que han ido incorporando facilidades y cosas de Vegas progresivamente :-)


Bromas aparte, Vegas usa funciones de ayuda en la línea de tiempos como el render a nueva pista, el prerender selectivo y, esto es más avanzado, el render a RAM.

Y como siempre, lo explicoteo todo aquí, en concreto en 27:45:


https://youtu.be/kqPmUJ1fgE0

X.
"...a pesar de ellos, yo soy del Sur y de la mar" (María Zambrano).

tretocephalus

CitarCreo que el mejor consejo que podría darte es que deberías invertir un poco más de tiempo en aprender cosas básicas relacionadass con la compresión y no depender tanto de lo que te digamos unos u otros y plantillas prefabricadas

El problema es que todo lo que encuentro es muy denso y me pierdo con facilidad. Estaría bien si pudieras explicar de forma sencilla que es lo que se utiliza para renderizar por ejemplo este video y por que.

Así para otros videos ya sabría a que principios atenerme...
CitarNo entiendo bien en qué te puedo ayudar poniendo el mediainfo; no soy ingeniero, soy editor y más sin saber si los datos son del video original o el renderizado. De todos modos se puede ver un dato escalofriante como es que el frame rate es variable. Esto es algo que casi siempre ocasiona tener que llamar a Houston con el famoso "tenemos un problema" :-)

Los datos son de un video original sin renderizar, el 90% de los videos que hago los hago exactamente en esas mismas condiciones, así que utilizo siempre la misma configuración grabando en modo manual, 1/50, f2.4 y enfocando muy bien que eso es fundamental.

Es por eso que todos los videos los edito con la misma configuración.

Por otro lado, los datos de mediainfo al menos han servido para que te dieras cuenta de algo de lo que no tenía ni idea. No sabía que tuviera el frame rate variable ;D ;D ;D

He estado buscando en las opciones de la camara y no veo donde se puede marcar para que esté fijo, ¿es que tiene algún otro nombre?

Saludos

XarquS

Cita de: tretocephalus en 30 de Junio de 2019, 15:14:52He estado buscando en las opciones de la camara y no veo donde se puede marcar para que esté fijo, ¿es que tiene algún otro nombre?
En tu cámara, ni idea. Los fps variables suelen ser usados por los teléfonos para el video y generalmente no se puede cambiar. Estos fps (fotogramas por segundo o frames per second) deben cumplir con el estandard para videos y teledifusión según estemos en países con PAL o NTSC. El problema es que estos frames variables suelen dar problemas de compatibilidad en muchos reproductores y, sobre todo, en los programas de edición.



Cita de: tretocephalus en 30 de Junio de 2019, 15:14:52Estaría bien si pudieras explicar de forma sencilla que es lo que se utiliza para renderizar por ejemplo este video y por que.

Si dices que te resulta denso y te pierdes con facilidad, hay que sumarle que yo no dispongo de tiempo para escribir de nuevo y repetir lo que ya está escrito incluso aquí, en esta web en la sección de documentación, que hay un capítulo dedicado a la compresión con distintos y diversos tutoriales. Así que paciencia, el esfuerzo de aprendizaje debes ponerlo tú y usar el foro para resolver dudas.

X.
"...a pesar de ellos, yo soy del Sur y de la mar" (María Zambrano).

lanchone


tretocephalus

01 de Julio de 2019, 17:29:30 #12 Ultima modificación: 01 de Julio de 2019, 18:11:19 por tretocephalus
Pues si, seguramente me tocará empezar con ese tipo de cosas, aunque me cueste.

La camara con la que grabo es una panasonic hc-vx1, siempre en 4k y modo manual, no grabo con movil.

He llamado a panasonic, por que yo no encontraba la opción para poner el frame rate en fijo y me han dicho que siempre es variable entre 5 y 25 fps, que no hay opción de ponerlo fijo.

Saludos

XarquS

Uuuuuuuyy... Es raro que ese tipo de cámara grabe con framerate variable; con bitrate variable sí, pero en las especificaciones ya expresan cosas como 50p, 25p o 50i...múuuu raro, ¿no?

A ver si puedes subir una muestra de video en bruto mediante Drive o Mega, o alguno similar...

X.
"...a pesar de ellos, yo soy del Sur y de la mar" (María Zambrano).

tretocephalus

Rectifico, me acabo de dar cuenta de que cuando grabo un video y directamente le paso el mediainfo me da esto:


Format                      : MPEG-4
Format profile              : Base Media / Version 2
Codec ID                    : mp42 (mp42/avc1)
File size                  : 3.98 GiB
Duration                    : 9 min 17 s
Overall bit rate mode      : Variable
Overall bit rate            : 61.3 Mb/s
Encoded date                : UTC 2019-06-30 23:23:42
Tagged date                : UTC 2019-06-30 23:23:42

Video
ID                          : 1
Format                      : AVC
Format/Info                : Advanced Video Codec
Format profile              : High@L5.1
Format settings            : CABAC / 2 Ref Frames
Format settings, CABAC      : Yes
Format settings, Reference  : 2 frames
Codec ID                    : avc1
Codec ID/Info              : Advanced Video Coding
Duration                    : 9 min 17 s
Bit rate mode              : Variable
Bit rate                    : 60.9 Mb/s
Maximum bit rate            : 70.0 Mb/s
Width                      : 3 840 pixels
Height                      : 2 160 pixels
Display aspect ratio        : 16:9
Frame rate mode            : Constant
Frame rate                  : 25.000 FPS
Color space                : YUV
Chroma subsampling          : 4:2:0
Bit depth                  : 8 bits
Scan type                  : Progressive
Bits/(Pixel*Frame)          : 0.294
Stream size                : 3.95 GiB (99%)
Language                    : Spanish
Encoded date                : UTC 2019-06-30 23:23:42
Tagged date                : UTC 2019-06-30 23:23:42
Color range                : Limited
Color primaries            : BT.709
Transfer characteristics    : BT.709
Matrix coefficients        : BT.709
Codec configuration box    : avcC

Audio
ID                          : 2
Format                      : AAC LC
Format/Info                : Advanced Audio Codec Low Complexity
Codec ID                    : mp4a-40-2
Duration                    : 9 min 17 s
Source duration            : 9 min 17 s
Bit rate mode              : Constant
Bit rate                    : 256 kb/s
Channel(s)                  : 2 channels
Channel layout              : L R
Sampling rate              : 48.0 kHz
Frame rate                  : 46.875 FPS (1024 SPF)
Compression mode            : Lossy
Stream size                : 16.8 MiB (0%)
Source stream size          : 16.8 MiB (0%)
Language                    : Spanish
Encoded date                : UTC 2019-06-30 23:23:42
Tagged date                : UTC 2019-06-30 23:23:42



Pero como la videocamara separa en fragmentos cuando se superan los 3.97 gb, si grabo por ejemplo durante 15 minutos, son dos fragmentos que siempre junto con un programa llamado MP4joiner. Uso este programa por que en principio pensaba que solamente unía tal cual los archivos, pero veo que modifica alguna cosa, no se si de forma negativa.

El mediainfo de las uniones, me da tal que esto:

Format                      : MPEG-4
Format profile              : Base Media
Codec ID                    : isom (isom)
File size                  : 18.8 GiB
Duration                    : 43 min 55 s
Overall bit rate mode      : Variable
Overall bit rate            : 61.1 Mb/s
Encoded date                : UTC 2019-07-01 17:32:35
Tagged date                : UTC 2019-07-01 17:32:35

Video
ID                          : 1
Format                      : AVC
Format/Info                : Advanced Video Codec
Format profile              : High@L5.1
Format settings            : CABAC / 2 Ref Frames
Format settings, CABAC      : Yes
Format settings, Reference  : 2 frames
Codec ID                    : avc1
Codec ID/Info              : Advanced Video Coding
Duration                    : 43 min 55 s
Source duration            : 43 min 55 s
Bit rate mode              : Variable
Bit rate                    : 60.9 Mb/s
Maximum bit rate            : 70.0 Mb/s
Width                      : 3 840 pixels
Height                      : 2 160 pixels
Display aspect ratio        : 16:9
Frame rate mode            : Variable
Frame rate                  : 25.000 FPS
Minimum frame rate          : 19.737 FPS
Maximum frame rate          : 25.000 FPS
Color space                : YUV
Chroma subsampling          : 4:2:0
Bit depth                  : 8 bits
Scan type                  : Progressive
Bits/(Pixel*Frame)          : 0.294
Stream size                : 18.7 GiB (100%)
Source stream size          : 18.7 GiB (100%)
Language                    : Spanish
Encoded date                : UTC 2019-06-30 23:23:42
Tagged date                : UTC 2019-07-01 17:39:43
Color range                : Limited
Color primaries            : BT.709
Transfer characteristics    : BT.709
Matrix coefficients        : BT.709
Codec configuration box    : avcC

Audio
ID                          : 2
Format                      : AAC LC
Format/Info                : Advanced Audio Codec Low Complexity
Codec ID                    : mp4a-40-2
Duration                    : 43 min 55 s
Source duration            : 43 min 55 s
Bit rate mode              : Variable
Bit rate                    : 253 kb/s
Maximum bit rate            : 259 kb/s
Channel(s)                  : 2 channels
Channel layout              : L R
Sampling rate              : 48.0 kHz
Frame rate                  : 46.875 FPS (1024 SPF)
Compression mode            : Lossy
Stream size                : 79.6 MiB (0%)
Source stream size          : 79.6 MiB (0%)
Language                    : Spanish
Encoded date                : UTC 2019-06-30 23:23:42
Tagged date                : UTC 2019-07-01 17:39:43



Y aquí si que me dice que el frame rate es variable.


Saludos


SMF spam blocked by CleanTalk
Powered by SMFPacks Menu Editor Mod
Powered by SMFPacks Media Embedder