Menú

Mostrar Mensajes

Esta sección te permite ver todos los mensajes escritos por este usuario. Ten en cuenta que sólo puedes ver los mensajes escritos en zonas a las que tienes acceso en este momento.

Mostrar Mensajes Menú

Mensajes - miguelsat

#61
Edición de vídeo (general) / Editor de video profesional
06 de Septiembre de 2020, 17:06:02
Si conoceis algun otro, ponerlo si se puede.
#62
Adobe Premiere / Re:Como trabajar con ac3
05 de Septiembre de 2020, 22:24:53
Al final voy a dejar de usar el Premiere, ¿por que cojones ahora, al importar un video, me desincroniza el audio con el video 3 segundos? el video orginal está perfectamente sincronizado.
#63
Adobe Premiere / Re:Como trabajar con ac3
10 de Agosto de 2020, 16:30:54
Los problemas me salen en varios programas cuando voy a editar videos grabados con el deco salitelite unicamente, asi que antes de pasarlos por Premiere tendré que buscar algún conversor bueno.
#64
Adobe Premiere / Re:Como trabajar con ac3
10 de Agosto de 2020, 12:39:37
El lossless cut me da errores por todos lados, me sale algo de natively y no me deja exportarlo.
#65
Adobe Premiere / Re:Como trabajar con ac3
10 de Agosto de 2020, 12:29:59
Voy a probar el lossless, estoy tan acostumbrado al premiere que me custa utilizar otros, hay muchas grabaciones de tv que no las admite el Premiere 2020, voy a probar con el 2019.
#66
Adobe Premiere / Re:Como trabajar con ac3
10 de Agosto de 2020, 00:57:40
Si con saber lo básico tengo suficiente, casi nunca me meto en edición avanzada, casi siempre en quitar anuncios y exportar básicamente, lo que si quiero es aprender un poco mas sobre el codec x265 porque se me está acabando el espacio, seguiré usando Premiere. :)
#67
Adobe Premiere / Re:Como trabajar con ac3
08 de Agosto de 2020, 19:19:00
Mientras mas leo más dudas tengo sobre la pista de audio. Lo que hago casi siembre es grabar de la tv, quitar los anuncios y exportar a la misma calidad, que programa conoceis mejor o igual que Premiere para eso? No tengo Mac.
#68
Adobe Premiere / Re:Como trabajar con ac3
06 de Agosto de 2020, 01:07:29
Pues muchas gracias por toda la información, intentare exportar en AC3, en algunos videos si consigo importar la pista en AC3 pero a ver como la exporto, probaré lo me dijeron. saludos.
#69
Adobe Premiere / Re:Como trabajar con ac3
05 de Agosto de 2020, 16:56:08
Entonces para que yo me entere, si tengo una pista en AC3 a 320 kbps y la convierto con el mismo bitrate a AAC HE, pierde algo de calidad?

Otra pergunta, como han conseguido subir tanto la calidad de este video? se veia regular hasta hace poco.


#70
Adobe Premiere / Re:Como trabajar con ac3
24 de Julio de 2020, 17:24:37
Este uno de los archivos

General
Unique ID                      : 185727391011585946333000372697137755312 (0x8BB9CB5CC38759719571CA3959D534B0)
Complete name                  : E:\Series\Brain Games\Brain.Games.S04E03.Language.720p.HDTV.x264-DHD.mkv
Format                        : Matroska
Format version                : Version 2
File size                      : 524 MiB
Duration                      : 21 min 59 s
Overall bit rate              : 3 332 kb/s
Encoded date                  : UTC 2014-07-22 06:08:15
Writing application            : mkvmerge v4.8.0 ('SALVATION') built on May 24 2011 03:12:58
Writing library                : libebml v1.2.0 + libmatroska v1.1.0

Video
ID                            : 1
Format                        : AVC
Format/Info                    : Advanced Video Codec
Format profile                : High@L4.1
Format settings                : CABAC / 5 Ref Frames
Format settings, CABAC        : Yes
Format settings, Reference fra : 5 frames
Codec ID                      : V_MPEG4/ISO/AVC
Duration                      : 21 min 59 s
Bit rate                      : 2 882 kb/s
Width                          : 1 280 pixels
Height                        : 720 pixels
Display aspect ratio          : 16:9
Frame rate mode                : Constant
Frame rate                    : 29.970 (30000/1001) FPS
Color space                    : YUV
Chroma subsampling            : 4:2:0
Bit depth                      : 8 bits
Scan type                      : Progressive
Bits/(Pixel*Frame)            : 0.104
Stream size                    : 453 MiB (86%)
Writing library                : x264 core 142 r2453 ea0ca51
Encoding settings              : cabac=1 / ref=5 / deblock=1:0:0 / analyse=0x3:0x113 / me=umh / subme=8 / psy=1 / psy_rd=1.00:0.00 / mixed_ref=1 / me_range=16 / chroma_me=1 / trellis=1 / 8x8dct=1 / cqm=0 / deadzone=21,11 / fast_pskip=1 / chroma_qp_offset=-2 / threads=12 / lookahead_threads=2 / sliced_threads=0 / nr=0 / decimate=1 / interlaced=0 / bluray_compat=0 / constrained_intra=0 / bframes=3 / b_pyramid=2 / b_adapt=2 / b_bias=0 / direct=3 / weightb=1 / open_gop=0 / weightp=2 / keyint=250 / keyint_min=25 / scenecut=40 / intra_refresh=0 / rc_lookahead=50 / rc=crf / mbtree=1 / crf=20.0 / qcomp=0.60 / qpmin=0 / qpmax=69 / qpstep=4 / ip_ratio=1.40 / aq=1:1.00
Default                        : Yes
Forced                        : No
Color range                    : Limited
Matrix coefficients            : BT.709

Audio
ID                            : 2
Format                        : AC-3
Format/Info                    : Audio Coding 3
Commercial name                : Dolby Digital
Codec ID                      : A_AC3
Duration                      : 21 min 59 s
Bit rate mode                  : Constant
Bit rate                      : 384 kb/s
Channel(s)                    : 6 channels
Channel layout                : L R C LFE Ls Rs
Sampling rate                  : 48.0 kHz
Frame rate                    : 31.250 FPS (1536 SPF)
Compression mode              : Lossy
Stream size                    : 60.4 MiB (12%)
Service kind                  : Complete Main
Default                        : Yes
Forced                        : No






Lo tendre que convertir a mp4 sin tocar el video ni el audio. Las versiones de antes de Premiere si exportaban en AC3?

Otra pregunta, que codec es mejor AC3 o AAC?
#71
Adobe Premiere / Como trabajar con ac3
21 de Julio de 2020, 00:30:23
Hola, tengo adobe premiere pro cc 2020 y no me importa la pista ac3 y tampoco me da la opcion de exportar y quisiera saber si hay algun plugin para esto, gracias.
#72
Me podrías decir como lo has hecho? gracias.
#73
Algo mejor se ve, gracias.
#74
Hola, alguien sabe como podría mejorar un poco la calidad de estos videos? Os pongo la dirección de youtube, gracias.





#75
Audio (general) / Re:Ayuda para mejorar calidad audio
26 de Enero de 2017, 11:59:25
Tengo un disco duro multimedia grabador con el que no se  me escapa nada de la TDT pero lo emitieron el domingo pasado en Discovery Channel que es de pago, el que está por la red está grabado de Discovery Max, llevo atento mucho tiempo por si lo repiten pero nada y tampoco lo suben a la página para poder verlo así que me quedaré con el trocito que grabé con el móvil, un saludo y gracias.

El spam de este foro está controlado por CleanTalk