Menú

Mostrar Mensajes

Esta sección te permite ver todos los mensajes escritos por este usuario. Ten en cuenta que sólo puedes ver los mensajes escritos en zonas a las que tienes acceso en este momento.

Mostrar Mensajes Menú

Mensajes - miguelsat

#31
He encontrado varios para eso, pero no se si vale también cuando tienen varias tandas de anuncios; como tarda tanto en recomprimir a veces, simpre que pueda evitaré la recompresión, gracias por todo y un saludo.
#32
Field order creo que es scan type y eso de motion estimation y deblocking viene como filtro en handbrake y mediacoder. Conoces otro programa como el premiere que al recomprimir no pierda calidad?
#33
Video
ID                          : 1
Format                      : AVC
Format/Info                : Advanced Video Codec
Format profile              : Main@L4
Format settings            : CABAC / 4 Ref Frames
Format settings, CABAC      : Yes
Format settings, Reference  : 4 frames
Codec ID                    : avc1
Codec ID/Info              : Advanced Video Coding
Duration                    : 46 min 47 s
Bit rate                    : 2 801 kb/s
Width                      : 1 920 pixels
Height                      : 1 080 pixels
Display aspect ratio        : 16:9
Frame rate mode            : Variable
Frame rate                  : 25.000 FPS
Minimum frame rate          : 12.500 FPS
Maximum frame rate          : 90 000.000 FPS
Color space                : YUV
Chroma subsampling          : 4:2:0
Bit depth                  : 8 bits
Scan type                  : Progressive
Bits/(Pixel*Frame)          : 0.054
Stream size                : 937 MiB (100%)
Codec configuration box    : avcC


Esa son las propiedades, se ha descargado sin audio, normalmente recomprimido con handbrake apenas pierde calidad, lo que hare en los videos que grabo sin anuncios es utilizar otro programa que no recomprima.

Sabes que significa eso de motion estimation y deblocking??
#34
Como hago para que coincida las opciones de exportación con el video original?
#35
Ha mejorado bastante, ahora cada pocos segundos se ve que da pequeños "saltitos", casi pasa desapercibido, no creo que se le pueda mejorar, otro video que he bajado del mismo sitio, el movimiento es totalmente suave, no lo entiendo pero bueno, así se quedará.

Otras 3 preguntas, al exportar, cuando marco la casilla coincidir ajutes de secuencia siempre sale mpeg preview y entre otras cosas no coincide el bitrate, ¿como puedo arreglar eso?

2ª, ¿por qué al exportar con máxima calidad, el mismo bitrate, 2 pasadas y procesar a la máxima profundidad en h.264 siempre pierde nitidez?

y la última, sabes de algun sitio donde pueda aprender estas propiedades o al menos las mas relevantes?
Encoding settings              : cpuid=1173503 / frame-threads=3 / numa-pools=8 / wpp / no-pmode / no-pme / no-psnr / no-ssim / log-level=2 / input-csp=1 / input-res=1920x1080 / interlace=0 / total-frames=0 / level-idc=0 / high-tier=1 / uhd-bd=0 / ref=3 / no-allow-non-conformance / no-repeat-headers / annexb / no-aud / no-hrd / info / hash=0 / no-temporal-layers / open-gop / min-keyint=23 / keyint=250 / gop-lookahead=0 / bframes=4 / b-adapt=0 / b-pyramid / bframe-bias=0 / rc-lookahead=15 / lookahead-slices=6 / scenecut=40 / radl=0 / no-intra-refresh / ctu=64 / min-cu-size=8 / no-rect / no-amp / max-tu-size=32 / tu-inter-depth=1 / tu-intra-depth=1 / limit-tu=0 / rdoq-level=0 / dynamic-rd=0.00 / no-ssim-rd / signhide / no-tskip / nr-intra=0 / nr-inter=0 / no-constrained-intra / strong-intra-smoothing / max-merge=2 / limit-refs=3 / no-limit-modes / me=1 / subme=2 / merange=57 / temporal-mvp / weightp / no-weightb / no-analyze-src-pics / deblock=0:0 / sao / no-sao-non-deblock / rd=2 / no-early-skip / rskip / fast-intra / no-tskip-fast / no-cu-lossless / no-b-intra / no-splitrd-skip / rdpenalty=0 / psy-rd=2.00 / psy-rdoq=0.00 / no-rd-refine / no-lossless / cbqpoffs=0 / crqpoffs=0 / rc=abr / bitrate=2000 / qcomp=0.60 / qpstep=4 / stats-write=0 / stats-read=0 / ipratio=1.40 / pbratio=1.30 / aq-mode=1 / aq-strength=1.00 / cutree / zone-count=0 / no-strict-cbr / qg-size=32 / no-rc-grain / qpmax=69 / qpmin=0 / no-const-vbv / sar=1 / overscan=0 / videoformat=5 / range=0 / colorprim=2 / transfer=2 / colormatrix=2 / chromaloc=0 / display-window=0 / max-cll=0,0 / min-luma=0 / max-luma=255 / log2-max-poc-lsb=8 / vui-timing-info / vui-hrd-info / slices=1 / no-opt-qp-pps / no-opt-ref-list-length-pps / no-multi-pass-opt-rps / scenecut-bias=0.05 / no-opt-cu-delta-qp / no-aq-motion / no-hdr / no-hdr-opt / no-dhdr10-opt / analysis-save=(null) / analysis-load=(null) / analysis-reuse-level=5 / scale-factor=0 / refine-intra=0 / refine-inter=0 / refine-mv=0 / no-limit-sao / ctu-info=0 / no-lowpass-dct / refine-mv-type=0 / copy-pic=1? Este es un video descargado del emule y tiene una calidad muy alta.
#36
un poco complicado, pero creo que podré hacer lo que indicas, cuando lo haga comentaré el resultado.
#37
Hola, tengo un video descargado que tiene fotograma variable de 6 a 100, el movimiento no es nada suave, lo he intentado convertir con Premiere Pro CC y el resultado son saltos, he probado varias configuraciones de salida al renderizar y no consigo nada, ¿alguien que sepa de esto me podría decir que configuración tengo que establecer para que el movmiento sea suave? prefiero handbrake porque el resultado es más nítido. Gracias. Saludos.

Aquí dejo las propiedades del video.

Video
ID                          : 1
Format                      : AVC
Format/Info                : Advanced Video Codec
Format profile              : Main@L4
Format settings            : CABAC / 4 Ref Frames
Format settings, CABAC      : Yes
Format settings, Reference  : 4 frames
Codec ID                    : avc1
Codec ID/Info              : Advanced Video Coding
Duration                    : 46 min 47 s
Source duration            : 46 min 47 s
Bit rate                    : 2 801 kb/s
Width                      : 1 912 pixels
Original width              : 1 920 pixels
Height                      : 1 088 pixels
Original height            : 1 080 pixels
Display aspect ratio        : 16:9
Frame rate mode            : Variable
Frame rate                  : 25.000 FPS
Minimum frame rate          : 6.250 FPS
Maximum frame rate          : 100.000 FPS
Color space                : YUV
Chroma subsampling          : 4:2:0
Bit depth                  : 8 bits
Scan type                  : Progressive
Bits/(Pixel*Frame)          : 0.054
Stream size                : 937 MiB (100%)
Source stream size          : 937 MiB (100%)
mdhd_Duration              : 2807760
Codec configuration box    : avcC
#38
Adobe After Effects / Re:Ayuda error CAF: sin memoria
29 de Septiembre de 2020, 12:02:16
Gracias, intentaré liberar espacio. El tutorial al final queda borroso la zona donde estaba el logo, mejor buscaré el mismo video pero sin logo. Un saludo.
#39
Adobe After Effects / Re:Ayuda error CAF: sin memoria
28 de Septiembre de 2020, 14:56:48
Tu sospecha es correcta, es un proyecto de After Effects, para quitarle el logo de canal de tv a un video en 720p de dos minutos con la función rellenar segun el contenido, el ordenador es un Asus D509DA, 6 Gb de RAM, 4 utilizables por el programa, procesador AMD Ryzen 7 3700U con Radeon Vega mobile Gfx 2,30GHz, HDD de 500 Gb con 30 libres. He utilizado un video en 480p, aunque no da probemas de memoria el resultado es horroroso. He visto videotutoriales de como utilizar ese efecto pero creo que no me funciona por que no tiene, el objeto a borrar, detrás, una superficie más o menos uniforme.
#40
Adobe After Effects / Ayuda error CAF: sin memoria
27 de Septiembre de 2020, 20:17:34
Hola, alguien sabe como soucionar el error CAF: sin memoria, cuando estoy creando una capa de relleno? gracias.
#41
Adobe Premiere / Re:Como trabajar con ac3
25 de Septiembre de 2020, 12:47:39
El Premiere CS5.5 es mejor que el Premiere Pro CC 2020?
#42
Adobe Premiere / Re:Como trabajar con ac3
24 de Septiembre de 2020, 16:57:55
En un capítulo de una hora, si sincronizas en los primero minutos, creo que despues al dar un salto en el tiempo se vuelve a desincronizar, no se si pasará con todos igual.
#43
Adobe Premiere / Re:Como trabajar con ac3
24 de Septiembre de 2020, 14:17:56
Si claro, si hace falta que subas más lo subo, pero cuando apago el deco satélite para quitar el pen drive y lo vuelvo a encender se queda sin señal. La grabación de France 24 no tiene audio AC3 y está bien sincronizado, la grabación de ONE, aunque tiene 3 audios, Premiere creo que solo coge el primero y también está sincronizado y por último la grabación de LCP que tiene AC3 es el único que al importarlo aparece desincronizado. No digo que tenga videos sin AC3 rotos pero en la mayoría aparece esto. En muchos sitios, dicen que el problema es de Premiere, que no acepta la velocidad de fotogramas variable, lo he comprobado y no es cierto, en otro sitio dice que con cambiar el contenedor es suficiente, tampoco es cierto. Subo los 3 video recien grabados.

LCP http://dl.free.fr/mrDX4ozkD
France 24 http://dl.free.fr/jbHd23yAB
ONE http://dl.free.fr/vteDarEt3
#44
Adobe Premiere / Re:Como trabajar con ac3
23 de Septiembre de 2020, 22:37:30
Aparte de que esten rotos, corruptos o lo que sea, todas las grabaciones que contienen el audio en AC3, al importarlos en Premiere se desincroniza y con el mismo sistema de grabación, cuando tienen el audio mp2, mp3 o AAC, al importarlo en Premiere aparece perfectamente sincronizado, asi que tendré que renunciar al AC3, en un video bien sincronizado exportado con Powerdirector se desincroniza con el audio en AC3.
#45
Gracias, entonces la única forma que hay para comprobar si es HD real es fijándose bien en la imagen. Un saludo.

El spam de este foro está controlado por CleanTalk