Menú

Mostrar Mensajes

Esta sección te permite ver todos los mensajes escritos por este usuario. Ten en cuenta que sólo puedes ver los mensajes escritos en zonas a las que tienes acceso en este momento.

Mostrar Mensajes Menú

Mensajes - lis

#31
Ok eternamente agradecida :-*

Enviado desde mi GT-N7100 usando Tapatalk 2
#32
Vaya... que no le eche tanto cuento y me ponga a currar.... que no vais a hacer el trabajo por mi... ::) de verdad.... con lo poco que os costaria decir ...haz esto esto y esto.... y ya está... no pido más... :-* es bromaaa

vale a ver que sale... pero es que me pongo a leer y leer ... y me enguachino de tanta información, que por otra parte es confusa, y no acabo de tener los conceptos totalmente claros.... pero algún día..

Pues en mi ordenador, viendolo a través de vimeo en hd, el mejor si que es el 3, el de maikel, en vimeo desde mi ordenador, es infumable.... Lo que voy a hacer, es ver estos tres en la television, a ver que tal....

Os contaré (a vuestro pesar... :P )
#33
Gracias Maikel. Esta noche pruebo el plugin...(ay no...q voy a cine::) mañana....

Lo que es curioso es q el render 1 se vea absolutamente perfecto, hasta el momento q da el chute....q lo hace a camara lenta y la celebracion y luego pasa a rapida. Y en internet no pasa...con el mismo archivo.....

Porque el programa con el q renderices ....poniendo las mismas directrices q te exige vimeo, influye en el resultado????

Lo digo pq se me pasó por la cabeza probar otro...no se...con premiere, por ejemplo....aunque prefiero por supuesto hacerlo con vegas

Gracias de nuevo:-*

Enviado desde mi GT-N7100 usando Tapatalk 2
#34

Hola de nuevo.


Ya he hecho las dos pruebas que me proponíais. A menos de que yo me haya equivocado, os adjunto capturas de pantalla, ... no van bien... la opción de nij, me he puesto super contenta, porque tiene un color mas bonito... más nitido.... perooooo, llega un momento que se pone como a cámara lenta. Esta es la captura (queria insertar aqui la imagen, pero no se como se hace  >:( ) bueno las adjunto todas juntas. es prueba render-1


opción de Maikel.... horrorosa..... render-2, la unica diferencia es donde veis numero de fotogramas de refenrencia (marcado en rojo) en el de Maikel ponia 1, pero cuando ponía 1 me lo cambia automaticamente a 2.


y la intermedia, es una parecida a la que subí (digo parecida, porque ahora no me acuerdo como la hice), y es un intermedio, creo que es la mejor....




render 1:
https://vimeo.com/84169835


render 2:
https://vimeo.com/84169834



render 3:
https://vimeo.com/84170302



Perdonad lo plomazo que soy.... pero no encuentro una buena solución...

PD. Ahora al ver el render 1 en vimeo..... no se ve en camara lenta....  ::)  pero en el pc si


(no tiene que ver q el video este grabado en 50p y la plantilla sea 50i ??? )

#35
Gracias a los dos.

me da tanta pereza ponerme a hacer estas pruebas (ya se que del todo necesarias).... esta noche intentaré hacer estas dos que me proponéis.

Cita de: maikel en 14 de Enero de 2014, 14:06:33

Siento decirte que tu vídeo lo veo a tirones, prácticamente es invisualizable para mí. ¿Sabes por qué? pues por mi línea  >:(
Esta es la razón por la cuál yo he desistido en subir vídeos a internet a 1080 y con altos bitrates: aún hay muuuuucha gente con conexiones, cableado, velocidad y trompicones similar a la diligencia de John Wayne   :'(


Ya se, pero a esas malas, supongo que siempre queda el poderlo ver sin HD, en formato normal, no??? Así creo que está más abierto, a los que pueden verlo a 1080, y a los que no puedan.... pues a SD...

Y si de rebote, me queda en una versión buena para guardarla en casa, y evitar dos renderizados..... pues mejor que mejor....

Lo dicho, os cuento mis resultados.

Por cierto nij estoy grabando a 50p , porque pensé que era la mejor opción para futbol.... además, si me apetece hacer algún camara lenta, supongo que tendrá más calidad no????  Es lo primero que grabo con la cámara, es la SONY HDR pj420ve, y voy un poco a tientas...... hasta ahora tenía la canon Legria HV40 que compré hace un par de años, cuando acababa de salir, lo que pasa es que se desenfoca continuamente, la llevé al servicio tecnico, y nada... me la devolvieron igual, así que he opctado por Sony y por tarjeta de memoria..... a ver que tal.... de momento..... no se... no me sentia muy cómoda grabando.....

Si sabeis de otra forma que sea mejor grabar este tipo de grabaciones (partidos de futbol)..... estoy abierta y receptiva a cualquier consejo o sugerencia...... de momento, el proximo partido lo voy a grabar quitando lo del ajuste inteligente ..... resulta que si pasas la camara por un contraluz, te lo ajusta solita, etc.... pero claro.... no me acaba de gustar, porque entonces los jugados quedan muy empastados.... oscuro... prefiero que se vea el rallito del sol por el medio, pero que toda la imagen quede más nítida.... como lo veis???
#36
Muchas gracias.


Vale, entiendo que la de nij es para guardarmelo en mi disco duro. Y el tuyo, Maikel, para internet. Bueno, aunque si el de internet me queda bien, depende que video, si no es muy importante, simplemente guardaré esa versión. Porque hasta ahora, para subirlos, los subia a 720 y son los que me quedaba para visionar en tele y pc, y se veían bien.


Ok pruebo, a ver si me da tiempo esta noche, desde luego con la que me pones, había un par de cosas que hago diferente, así de memoria, lo del render, que le digo por cuda.... y lo del variable, que antes lo ponia así, pero leí en vimeo que era mejor constante (en vimeo tengo plus, por lo que me deja subir a 1080)


Maikel, si, es otro video, cuando grabo en la videocamara, cada vez q doy a star, empieza clip nuevo. Sólo puse el primero, en el otro, es una vez editado ya, con bastantes clips.


Ostras, pues si que hay diferencia con el wmv... hasta el aspecto de pantalla, ... es que estaba desesperada... pero era lo que más decente quedó, no perfecto.. sobre todo en los movimientos rapidos pero.... os adjunto el link de ese wmv, para que lo veais, (ahora que lo dices, y que he ido a poner el link, es cierto que se ven un poco deformes.... como alargados....)
JORNADA-17-MOLLET-FIGUERES-11-1-14 on Vimeo

Gracias por vuestra ayuda.  :-*


#37
Gracias nij, como busqué temas por el buscador, no me fijé. Y te cité, porque al leerte, justo era lo que quería hacer, dicho de una forma sencilla y clara....(no como yo, que me enrollo un montón para no decir nada ;D )

#38
Muchiiiiiiiisimas gracias Olahf. Aún no he visto ningun entero, pero tienen una pinta estupenda, y me van como anillo al dedo, porque es una asignatura pendiente que tengo, la de empezar con AE.... así que, me acabo de suscribir, y muchísimas gracias de nuevo por tu buen trabajo y sobretodo, por la generosidad de compartirlo.
#39
Cita de: nij en 06 de Septiembre de 2012, 13:32:51

Otra opción muy usada consiste en, una vez terminada la edición, exportar en el formato original de la cámara.


Hola nij , perdona, se que este tema es viejo, pero como estoy con la misma historia ahora......

Ahora diré una tonteria.... pero, por favor, me puedes arrojar un poquito de luz.... (práctica) yo no se lo que llevo leído ya del tema de los formatos, pero justamente eso es lo que quiero,

editar (un formato avchd que te da un archivo mts)  en sony vegas.... como lo renderizo para dejarlo en el mismo formato....  porque cuando conectas la videocamara a la tele, directamente, con cable hdmi,  la imagen que te da es perfecta.... yo quiero eso, pero despues de editado con vegas......

Gracias por vuestra ayuda.
#40
Hola, gracias por responder. Acabo de hacer un renderizado, que ha quedado bastante bien.
Uso el Vegas 12. No, no estoy en pestaña audio, cuando le das a renderizar como, te da todas las opciones, y arriba tienes para marcar como favorito, o, la que se ajusta al medio.... pues si le doy a la que dice ajustar al proyecto, solo aparecen mp3 ... ogg.... etc...

Os cuento, el original es esto:

Format                           : BDAV
Format/Info                      : Blu-ray Video
File size                        : 170 MiB
Duration                         : 53s 986ms
Overall bit rate                 : 26.5 Mbps
Maximum Overall bit rate         : 28.0 Mbps

Video
ID                               : 4113 (0x1011)
Menu ID                          : 1 (0x1)
Format                           : AVC
Format/Info                      : Advanced Video Codec
Format profile                   : High@L4.2
Format settings, CABAC           : Yes
Format settings, ReFrames        : 2 frames
Format settings, GOP             : M=1, N=24
Codec ID                         : 27
Duration                         : 53s 280ms
Bit rate mode                    : Variable
Bit rate                         : 25.0 Mbps
Maximum bit rate                 : 26.0 Mbps
Width                            : 1 920 pixels
Height                           : 1 080 pixels
Display aspect ratio             : 16:9
Frame rate                       : 50.000 fps
Color space                      : YUV
Chroma subsampling               : 4:2:0
Bit depth                        : 8 bits
Scan type                        : Progressive
Bits/(Pixel*Frame)               : 0.241
Stream size                      : 159 MiB (93%)

Audio
ID                               : 4352 (0x1100)
Menu ID                          : 1 (0x1)
Format                           : AC-3
Format/Info                      : Audio Coding 3
Mode extension                   : CM (complete main)
Codec ID                         : 129
Duration                         : 53s 280ms
Bit rate mode                    : Constant
Bit rate                         : 448 Kbps
Channel(s)                       : 6 channels
Channel positions                : Front: L C R, Side: L R, LFE
Sampling rate                    : 48.0 KHz
Bit depth                        : 16 bits
Compression mode                 : Lossy
Stream size                      : 2.85 MiB (2%)

Text
ID                               : 4608 (0x1200)
Menu ID                          : 1 (0x1)
Format                           : PGS
Codec ID                         : 144
Duration                         : 52s 735ms

Lo que solia hacer, y que con este queda fatal:
Format                           : MPEG-4
Format profile                   : Base Media / Version 2
Codec ID                         : mp42
File size                        : 316 MiB
Duration                         : 8mn 24s
Overall bit rate                 : 5 266 Kbps
Encoded date                     : UTC 2014-01-12 13:25:58
Tagged date                      : UTC 2014-01-12 13:25:58

Video
ID                               : 2
Format                           : AVC
Format/Info                      : Advanced Video Codec
Format profile                   : Main@L3.2
Format settings, CABAC           : Yes
Format settings, ReFrames        : 3 frames
Codec ID                         : avc1
Codec ID/Info                    : Advanced Video Coding
Duration                         : 8mn 24s
Bit rate mode                    : Variable
Bit rate                         : 4 941 Kbps
Maximum bit rate                 : 5 000 Kbps
Width                            : 1 280 pixels
Height                           : 720 pixels
Display aspect ratio             : 16:9
Frame rate mode                  : Constant
Frame rate                       : 25.000 fps
Standard                         : NTSC
Color space                      : YUV
Chroma subsampling               : 4:2:0
Bit depth                        : 8 bits
Scan type                        : Progressive
Bits/(Pixel*Frame)               : 0.214
Stream size                      : 297 MiB (94%)
Language                         : English
Encoded date                     : UTC 2014-01-12 13:25:58
Tagged date                      : UTC 2014-01-12 13:25:58

Audio
ID                               : 1
Format                           : AAC
Format/Info                      : Advanced Audio Codec
Format profile                   : LC
Codec ID                         : 40
Duration                         : 8mn 24s
Bit rate mode                    : Constant
Bit rate                         : 320 Kbps
Channel(s)                       : 2 channels
Channel positions                : Front: L R
Sampling rate                    : 44.1 KHz
Compression mode                 : Lossy
Stream size                      : 19.2 MiB (6%)
Language                         : English
Encoded date                     : UTC 2014-01-12 13:25:58
Tagged date                      : UTC 2014-01-12 13:25:58

y por último, probando, este es el que se ve más o menos bien... bueno las vallas de detras hacen un poco cosas raras.... pero esta mucho mejor:

Format                           : Windows Media
File size                        : 508 MiB
Duration                         : 8mn 24s
Overall bit rate mode            : Constant
Overall bit rate                 : 8 447 Kbps
Maximum Overall bit rate         : 8 458 Kbps
Encoded date                     : UTC 2014-01-12 16:18:55.558
SfOriginalFPS                    : 599400

Video
ID                               : 2
Format                           : VC-1
Format profile                   : MP
Codec ID                         : WMV3
Codec ID/Info                    : Windows Media Video 9
Codec ID/Hint                    : WMV3
Description of the codec         : Windows Media Video 9 - Professional
Duration                         : 8mn 24s
Bit rate mode                    : Constant
Bit rate                         : 8 197 Kbps
Width                            : 1 440 pixels
Height                           : 1 080 pixels
Display aspect ratio             : 4:3
Frame rate                       : 59.940 fps
Bit depth                        : 8 bits
Scan type                        : Progressive
Compression mode                 : Lossy
Bits/(Pixel*Frame)               : 0.088
Stream size                      : 493 MiB (97%)
Language                         : Spanish

Audio
ID                               : 1
Format                           : WMA
Format version                   : Version 2
Codec ID                         : 161
Codec ID/Info                    : Windows Media Audio
Description of the codec         : Windows Media Audio 9.2 - 192 kbps, 48 kHz, stereo (A/V) 1-pass CBR
Duration                         : 8mn 24s
Bit rate mode                    : Constant
Bit rate                         : 192 Kbps
Channel(s)                       : 2 channels
Sampling rate                    : 48.0 KHz
Bit depth                        : 16 bits
Stream size                      : 11.5 MiB (2%)
Language                         : Spanish

Lo quiero para subir a internet..... pero también para tenerlo guardados en un disco duro (a la mayor resolución posible) que imagino que no será la misma que la de internet, aunque sea a 1080, no????

Tengo un caos mental.... gracias por todo


#41
Hola de nuevo. Supongo que no lo debería de poner aqui el post, sentiros libres de moverlo.

Bueno, ya he hecho la primera grabación................ooohhhh que rollo, estoy desesperada de hacer pruebas ya... no se como hacerlo. A ver si me podéis echar una manilla.

Como lo que iba a grabar era un partido de futbol, configuré la cámara en avchd 50p.... conecto la camara a la tv mediante el cable hdmi y perfecto... colorido y todo, muy bien, genial... estabilizador... se ve todo bien.

Edito en vegas.... renderizo............. ya la hemos liado........pierde un montón de calidad...........no se como hacerlo.... necesito subirlo a vimeo.... y ni idea como configurar la rederización, porque de verdad, que las imagenes rapidas.... fatal... del colorido ya no digo nada...

El archivo que me da la cámara es un mts...............como lo tengo que renderizar???? ya se que se ha hablado mil veces del tema.... pero a mi no me va bien ninguna configuración .... además, una cosa curiosisima, si marco la opción de "hacer coincidir con configuración de proyecto".... solo me da configuraciones de sonido...:-(

Gracias por vuestra ayuda.

[mod] Mensaje cortado del hilo original sobre otro asunto.[/mod]
#42
Buenas tardes. Gracias por responder. Perdonad pero he estado unos días fuera. Feliz año a todos.


Nij pero la canon que tenía, al grabar en minidv creo que no perdia calidad, me genera un m2t.

Esta tiene la opción del mp4 directamente,pero al seleccionarlo, directamente te dice la camara formato para compartir, por lo que entiendo que estará super comprimido.



De momento la he configurado en calidad HD, si es para situaciones normales a 25p y cuando grabe (que es lo que voy a hacer cada semana) partidos de futbol, lo haré en 50p   me da la sensación que es lo más correcto .... no lo tengo muy claro...también dispone de la opción 50i, dentro de la selección de hd ---- avd hd.... elijo calidad superior FX  (la otra opcion es alta scalidad FH)


A ver como me sale.... no las tengo todas conmigo, es como muy automática... y las cosas tan automaticas no se porque no me inspiran demasiada confianza.


El estabilizador no lo acabo de entender.... en teoría, según las instrucciones, cuando grabas con estabilizador, no puedes usar el zoom optico (30) que es una de las cosas por las que la compré..... pero he probado a dar zoom con el estabilizador.... y a mi si me funciona el zoom..... pero es que otra de las cosas que no veo como seleccionar, y debería poderse, es diferenciar el zoom digital del optico.... me gustaría desactivar el digital.... pero no veo como....


en fin, a ver si poco a poco le voy cogiendo el tranquillo.


Por cierto, edito con vegas.... supongo q no tendré ningún problema con formatos.


Un saludo a todos.







#43
Hola buenas noches. Tengo una canon Legria Hv40 , y no estoy nada contenta con ella, me desenfoca, continuamente, y ya estoy cansada, así que voy a poner en la carta a los Reyes una nueva videocamara. Estoy bastante oxidada en el tema. Cuando compré la hv40 la elegí con minidv para que la calidad del video fuese la máxima.  Ahora estoy mirando, por ejemplo, una Sony PJ420VE, la uso más que nada para grabar partidos de futbol, y luego los edito con Sony Vegas. Me gusta que tenga bastante calidad para que luego pueda hacer zoom  y camara lenta en vegas. He mirado esta porque la anuncian como que su punto fuerte es el estabilizador, y que puede seguir a un sujeto .... eso me iría perfecto para grabar el futbol...


Mi duda, este tipo de cámaras, graban ya directamente en mp4 no??? no pierdes calidad (al estar ya comprimido) para editar???


Otra cosa, si sabéis, que alguna cámara similar, que no se dispare en precio, podéis orientarme???


Muchas gracias de antemano por vuestra ayuda.
#44
Cita de: stendeck en 28 de Julio de 2013, 01:27:48
Gracias a las respuestas he conseguido quitar esas rayas de movimiento pero sigue dándome problemas el peso. He conseguido bajar hasta 75Mb pero otro que rendericé hace 1 mes tenía los mismos objetos y duraba 30 segundos más y me dio un mp4 30Mb... No entiendo muy bien lo de los códecs...

Perdona stendeck, pero como lo solucionaste, cambiando entrelazado????

Enviado desde mi GT-N7100 usando Tapatalk 2
#45
Hola a todos, hace siglos que no paso por aqui.... voy muy liada.... pero que sepáis que cuando tengo una duda...........lo primero... vosotros..... siento no aportar nada solo pedir ::)


Dicho esto me da vergüenza preguntar sobre el renderizado cuando se que hay mil cosas escritas sobre ello......pero es que.... no me aclaro.... por favor, algún alma caritativa que me diga sus configuraciones.... desde que cambié a vegas 12 que no doy una......(lista de mi, no me guardé las  configuraciones que ya tenía hechas).


Bien mi cámara grava en:



Format                           : MPEG-TS
Format_Commercial_IfAny          : HDV 1080i
File size                        : 3.16 GiB
Duration                         : 17mn 18s
Start time                       : UTC 165-25-45 45:85:85
End time                         : UTC 165-25-45 45:85:85
Overall bit rate                 : 26.1 Mbps
Maximum Overall bit rate         : 33.0 Mbps
Encoded date                     : UTC 165-25-45 45:85:85


Video
ID                               : 2064 (0x810)
Menu ID                          : 100 (0x64)
Format                           : MPEG Video
Format_Commercial_IfAny          : HDV 1080i
Format version                   : Version 2
Format profile                   : Main@High 1440
Format settings, BVOP            : Yes
Format settings, Matrix          : Default
Format settings, GOP             : M=3, N=12
Codec ID                         : 2
Duration                         : 17mn 17s
Bit rate mode                    : Constant
Bit rate                         : 25.0 Mbps
Width                            : 1 440 pixels
Height                           : 1 080 pixels
Display aspect ratio             : 16:9
Frame rate                       : 25.000 fps
Standard                         : Component
Color space                      : YUV
Chroma subsampling               : 4:2:0
Bit depth                        : 8 bits
Scan type                        : Interlaced
Scan order                       : Top Field First
Compression mode                 : Lossy
Bits/(Pixel*Frame)               : 0.643
Stream size                      : 2.96 GiB (94%)


Audio
ID                               : 2068 (0x814)
Menu ID                          : 100 (0x64)
Format                           : MPEG Audio
Format version                   : Version 1
Format profile                   : Layer 2
Codec ID                         : 3
Duration                         : 17mn 17s
Bit rate mode                    : Constant
Bit rate                         : 384 Kbps
Channel(s)                       : 2 channels
Sampling rate                    : 48.0 KHz
Compression mode                 : Lossy
Delay relative to video          : -80ms
Stream size                      : 47.5 MiB (1%)


Y necesito exportar en dos formatos, uno para vimeo, youtube, etc. a mayor calidad, y obviamente menos peso.


Y otro a DVD, para ver, por ejemplo, a través de una playstation.....


Hasta ahora lo del dvd lo hacia en mpg2 y audio ac3 y luego en el dvd architect..... pero es que ahora.......se ve fatal.......el que antes renderizaba para vimeo, en la tele se veía perfecto......pues ahora, ni ese se ve bien........... no se explicar como se ve.... pero fatal.... como los videos son de futbol, pues en movimientos rapidos, como un poco de raya... y pequeñines saltos....vaya que no es nítido....


y ya no se si los campos fusionados....o interpolados......... que si adaptar proyecto a configuración de video... que ni asi sale.......no se...


por favor, me podríais decir, que parámetros ponéis vosotros para renderizar.


Y mil perdones por preguntar esto, que seguro está en algún post, pero de los que he leído, no hay ningungo que me quite dudas....(por cierto, la mayoría configuran en ntsc..... (y son españoles) no debería ser en pal?????


Gracias de antemano por vuestra ayuda, y a seguir disfrutando de las vacaciones.  :-*

El spam de este foro está controlado por CleanTalk