Ayuda con calidad de movimiento
 
down

Publicidad

* Celebración 20º aniversario

El próximo 4 de septiembre habrá un evento de celebración del 20º aniversario de videoedicion.org

[ Pincha aquí para más información ]

Compra y colabora

Si pinchas en este enlace/banner antes de hacer tus compras en Amazon recibiremos una pequeña comisión para pagar el servidor. ¡Gracias!

* Usuario

 
 
Bienvenido(a), Visitante. Por favor, ingresa o regístrate. ¿Perdiste tu email de activación?

Publicidad

* Calendario

Enero 2021
Dom Lun Mar Mié Jue Vie Sáb
1 2
3 4 5 6 7 8 9
10 11 12 13 14 15 16
17 18 19 20 21 22 23
24 25 26 27 [28] 29 30
31

No hay eventos en el calendario.

* Lo último en el foro

Re:Ayuda con calidad de movimiento por Poucopelo
[Hoy a las 01:22:11]


Audition: Asignar mano o boton cetral de raton a otro boton o atajo por mamomo
[Ayer a las 23:58:02]


Re:ACTUALIZACIÓN ____ Vegas Pro V18.0.0 (434) por XarquS
[Ayer a las 23:40:30]


Re:Comprir un formato DVD por Poucopelo
[Ayer a las 22:07:19]


Re:[SOLUCIONADO] Error al intentar guardar captura de vídeo. por Poucopelo
[Ayer a las 22:02:20]


Re:Error al intentar guardar captura de vídeo. por zergiomp
[Ayer a las 20:08:31]


Saltos en el video por JOSEME
[Ayer a las 18:27:18]


[SOLUCIONADO] Error al intentar guardar captura de vídeo. por zergiomp
[Ayer a las 15:38:50]


Comprir un formato DVD por mgf
[Ayer a las 15:02:18]


Re:Reescalado de 6k a 8k por miel1969
[26 de Enero de 2021, 22:39:00]


Re:Reescalado de 6k a 8k por Poucopelo
[26 de Enero de 2021, 20:09:38]


Re:Reescalado de 6k a 8k por miel1969
[26 de Enero de 2021, 17:13:09]


Re:Ayuda con calidad de movimiento por miguelsat
[26 de Enero de 2021, 15:20:03]


Re:Ayuda con calidad de movimiento por Poucopelo
[26 de Enero de 2021, 14:15:19]


Re:Ayuda con calidad de movimiento por miguelsat
[26 de Enero de 2021, 12:50:13]

* Conectados

  • Punto Visitantes: 33
  • Punto Oculto: 0
  • Punto Usuarios: 0

No hay usuarios conectados.

Publicidad

Ayuda con calidad de movimiento

Iniciado por miguelsat, 10 de Enero de 2021, 20:49:39

Tema anterior - Siguiente tema

miguelsat

Hola, tengo un video descargado que tiene fotograma variable de 6 a 100, el movimiento no es nada suave, lo he intentado convertir con Premiere Pro CC y el resultado son saltos, he probado varias configuraciones de salida al renderizar y no consigo nada, ¿alguien que sepa de esto me podría decir que configuración tengo que establecer para que el movmiento sea suave? prefiero handbrake porque el resultado es más nítido. Gracias. Saludos.

Aquí dejo las propiedades del video.

Video
ID                          : 1
Format                      : AVC
Format/Info                : Advanced Video Codec
Format profile              : Main@L4
Format settings            : CABAC / 4 Ref Frames
Format settings, CABAC      : Yes
Format settings, Reference  : 4 frames
Codec ID                    : avc1
Codec ID/Info              : Advanced Video Coding
Duration                    : 46 min 47 s
Source duration            : 46 min 47 s
Bit rate                    : 2 801 kb/s
Width                      : 1 912 pixels
Original width              : 1 920 pixels
Height                      : 1 088 pixels
Original height            : 1 080 pixels
Display aspect ratio        : 16:9
Frame rate mode            : Variable
Frame rate                  : 25.000 FPS
Minimum frame rate          : 6.250 FPS
Maximum frame rate          : 100.000 FPS
Color space                : YUV
Chroma subsampling          : 4:2:0
Bit depth                  : 8 bits
Scan type                  : Progressive
Bits/(Pixel*Frame)          : 0.054
Stream size                : 937 MiB (100%)
Source stream size          : 937 MiB (100%)
mdhd_Duration              : 2807760
Codec configuration box    : avcC

Poucopelo

Es un problema complicado y en el que por mucho que se trabaje, es posible que no se obtenga un resultado satisfactorio.

Partimos de un material del que dices que tiene un movimiento nada suave, además está grabado con un framerate de 25 fotogramas por segundo, pero no constantes, variable entre 6,25 y 100.
Premiere (en sus últimas versiones) acepta este tipo de vídeos, pero para poder editarlos tiene que adaptarlo a la secuencia, lo que implica cuadruplicar fotogramas para llegar a 25 fps en ciertas partes (las que van a 6,25) y eliminar en otras. Así que no es de extrañar que se resalten los saltos de imagen.

Lo único que se me ocurre para beneficionarse de las opciones del Frame Sampling de Premiere, es hacer trampas:
Importar el clip, seleccionarlo en el panel de proyecto, clic con el botón derecho del ratón > Modify > Interpret Footage > Frame Rate > Assume this frame rate > escribir 50 fps > O.K.

Crea una nueva secuencia desde el clip.
El clip se reproduce al doble de su velocidad, para corregirlo, con el clip seleccionado en la línea de tiempos, clic con el botón derecho del ratón > Speed Duration > 50 % y en la pestaña Time Interpolation > desmarca la primera opción Frame Sampling y prueba con Frame Blending.

Haz render del clip (es imprecindible para ver el efecto) y juzga si mejora.
Luego marca la opción Optical Flow, vuelve a hacer render y compara.

Si hay suerte, habrá mejorado algo el vídeo. Si no.....

Ignoro si en HandBrake se puede hacer alguna operación de este tipo.
En AvySinth recuerdo que había unos filtros denominados SmoothFPS2, FrameRateConverter, FillDrops, ReplaceFramesMC, etc. Cada uno intentando paliar estos problemas de saltos de fotogramas, pero nunca los he usado.

Saludos.

miguelsat

un poco complicado, pero creo que podré hacer lo que indicas, cuando lo haga comentaré el resultado.

miguelsat

Ha mejorado bastante, ahora cada pocos segundos se ve que da pequeños "saltitos", casi pasa desapercibido, no creo que se le pueda mejorar, otro video que he bajado del mismo sitio, el movimiento es totalmente suave, no lo entiendo pero bueno, así se quedará.

Otras 3 preguntas, al exportar, cuando marco la casilla coincidir ajutes de secuencia siempre sale mpeg preview y entre otras cosas no coincide el bitrate, ¿como puedo arreglar eso?

2ª, ¿por qué al exportar con máxima calidad, el mismo bitrate, 2 pasadas y procesar a la máxima profundidad en h.264 siempre pierde nitidez?

y la última, sabes de algun sitio donde pueda aprender estas propiedades o al menos las mas relevantes?
Encoding settings              : cpuid=1173503 / frame-threads=3 / numa-pools=8 / wpp / no-pmode / no-pme / no-psnr / no-ssim / log-level=2 / input-csp=1 / input-res=1920x1080 / interlace=0 / total-frames=0 / level-idc=0 / high-tier=1 / uhd-bd=0 / ref=3 / no-allow-non-conformance / no-repeat-headers / annexb / no-aud / no-hrd / info / hash=0 / no-temporal-layers / open-gop / min-keyint=23 / keyint=250 / gop-lookahead=0 / bframes=4 / b-adapt=0 / b-pyramid / bframe-bias=0 / rc-lookahead=15 / lookahead-slices=6 / scenecut=40 / radl=0 / no-intra-refresh / ctu=64 / min-cu-size=8 / no-rect / no-amp / max-tu-size=32 / tu-inter-depth=1 / tu-intra-depth=1 / limit-tu=0 / rdoq-level=0 / dynamic-rd=0.00 / no-ssim-rd / signhide / no-tskip / nr-intra=0 / nr-inter=0 / no-constrained-intra / strong-intra-smoothing / max-merge=2 / limit-refs=3 / no-limit-modes / me=1 / subme=2 / merange=57 / temporal-mvp / weightp / no-weightb / no-analyze-src-pics / deblock=0:0 / sao / no-sao-non-deblock / rd=2 / no-early-skip / rskip / fast-intra / no-tskip-fast / no-cu-lossless / no-b-intra / no-splitrd-skip / rdpenalty=0 / psy-rd=2.00 / psy-rdoq=0.00 / no-rd-refine / no-lossless / cbqpoffs=0 / crqpoffs=0 / rc=abr / bitrate=2000 / qcomp=0.60 / qpstep=4 / stats-write=0 / stats-read=0 / ipratio=1.40 / pbratio=1.30 / aq-mode=1 / aq-strength=1.00 / cutree / zone-count=0 / no-strict-cbr / qg-size=32 / no-rc-grain / qpmax=69 / qpmin=0 / no-const-vbv / sar=1 / overscan=0 / videoformat=5 / range=0 / colorprim=2 / transfer=2 / colormatrix=2 / chromaloc=0 / display-window=0 / max-cll=0,0 / min-luma=0 / max-luma=255 / log2-max-poc-lsb=8 / vui-timing-info / vui-hrd-info / slices=1 / no-opt-qp-pps / no-opt-ref-list-length-pps / no-multi-pass-opt-rps / scenecut-bias=0.05 / no-opt-cu-delta-qp / no-aq-motion / no-hdr / no-hdr-opt / no-dhdr10-opt / analysis-save=(null) / analysis-load=(null) / analysis-reuse-level=5 / scale-factor=0 / refine-intra=0 / refine-inter=0 / refine-mv=0 / no-limit-sao / ctu-info=0 / no-lowpass-dct / refine-mv-type=0 / copy-pic=1? Este es un video descargado del emule y tiene una calidad muy alta.

Poucopelo

Cita de: miguelsat en 13 de Enero de 2021, 13:20:10cuando marco la casilla coincidir ajutes de secuencia siempre sale mpeg preview y entre otras cosas no coincide el bitrate
Porque hace coincidir los ajustes con la secuencia, no con el vídeo que tengas en ella.

Nada te impide desmarcar esa casilla y modificar a tu gusto los parámetros.

Cita de: miguelsat en 13 de Enero de 2021, 13:20:10¿por qué al exportar con máxima calidad, el mismo bitrate, 2 pasadas y procesar a la máxima profundidad en h.264 siempre pierde nitidez?
Habría que comparar original con resultado y ver los ajustes con que has editado y exportado.

De todas formas, la recompresión es un proceso en el que siempre se pierde calidad.
Mantener el bitrate del clip no implica que se obtenga un resultado con la misma calidad que el original.

Cita de: miguelsat en 13 de Enero de 2021, 13:20:10sabes de algun sitio donde pueda aprender estas propiedades o al menos las mas relevantes?
Parece proceder de algún script de línea de comandos. Quizás FFmpeg o AviSynth.

Lo siento, pero para mí es chino.

Saludos

PUBLICIDAD


miguelsat

Como hago para que coincida las opciones de exportación con el video original?

Poucopelo

Es cuestión de revisar los datos que ofrece MediaInfo. Los fundamentales son:
En vídeo: Formato / Códec / Bitrate / Resolución / Field Order / Display aspect ratio / Frame rate
En audio: Formato / Códec / Bitrate / Channels / Sample rate / Bit depth

Insisto en que el hacer coincidir las características del video original con el exportado, no supone que tenga la misma calidad. Cada recompresión va a afectar negativamente al resultado.
Es más: En formatos de códec para distribución (y la mayoría de los vídeos que andan por internet lo son), si exportas con el mismo bitrate con que fue grabado, habrá pérdida de calidad apreciable.

Saludos.

miguelsat

Video
ID                          : 1
Format                      : AVC
Format/Info                : Advanced Video Codec
Format profile              : Main@L4
Format settings            : CABAC / 4 Ref Frames
Format settings, CABAC      : Yes
Format settings, Reference  : 4 frames
Codec ID                    : avc1
Codec ID/Info              : Advanced Video Coding
Duration                    : 46 min 47 s
Bit rate                    : 2 801 kb/s
Width                      : 1 920 pixels
Height                      : 1 080 pixels
Display aspect ratio        : 16:9
Frame rate mode            : Variable
Frame rate                  : 25.000 FPS
Minimum frame rate          : 12.500 FPS
Maximum frame rate          : 90 000.000 FPS
Color space                : YUV
Chroma subsampling          : 4:2:0
Bit depth                  : 8 bits
Scan type                  : Progressive
Bits/(Pixel*Frame)          : 0.054
Stream size                : 937 MiB (100%)
Codec configuration box    : avcC


Esa son las propiedades, se ha descargado sin audio, normalmente recomprimido con handbrake apenas pierde calidad, lo que hare en los videos que grabo sin anuncios es utilizar otro programa que no recomprima.

Sabes que significa eso de motion estimation y deblocking??

Poucopelo

Cita de: miguelsat en 14 de Enero de 2021, 11:57:35Sabes que significa eso de motion estimation y deblocking??
No veo esa información en el MediaInfo.
Suena a script de filtros por línea de comandos. Quizás FFmpeg o AviSynth.

Saludos.

miguelsat

Field order creo que es scan type y eso de motion estimation y deblocking viene como filtro en handbrake y mediacoder. Conoces otro programa como el premiere que al recomprimir no pierda calidad?

Poucopelo

14 de Enero de 2021, 13:13:26 #10 Ultima modificación: 15 de Enero de 2021, 10:46:43 por Poucopelo
Ya hemos hablado de ello en otros hilos similares que has planteado, y para simplemente cortar escenas sin recomprimir, vuelvo a recomendar el TMPGEnc MPEG Smart Renderer:
https://tmpgenc.pegasys-inc.com/en/product/tmsr6.html

Hay versión de prueba, así que no tienes nada que perder.

Saludos.

miguelsat

He encontrado varios para eso, pero no se si vale también cuando tienen varias tandas de anuncios; como tarda tanto en recomprimir a veces, simpre que pueda evitaré la recompresión, gracias por todo y un saludo.

miguelsat

TMPGEnc MPEG Smart Renderer 6 este es?

Poucopelo

Correcto. La versión actual es la 6.
He actualizado el enlace.

Sí que puede hacer mútiples cortes a lo largo de un mismo clip, recomprimiendo sólo los fotogramas necesarios en dichos cortes.

Saludos.

Poucopelo

Aquí un pequeño vídeo en el que se ve cómo trabaja:


PUBLICIDAD



Powered by SMFPacks Menu Editor Mod