down

Publicidad


https://www.amazon.es/?tag=videoedicion-21&linkCode=ez

Si compras en Amazon, puedes colaborar pinchando en este banner y haciendo tu compra a continuación. De esa manera obtendremos una comisión  por cada venta confirmada. Más info aquí: ¡Gracias por tu colaboración! :-)

* Usuario

 
 
Bienvenido(a), Visitante. Por favor, ingresa o regístrate. ¿Perdiste tu email de activación?

* Calendario

Julio 2020
Dom Lun Mar Mié Jue Vie Sáb
1 2 3 4
5 6 7 8 9 10 11
12 13 14 15 [16] 17 18
19 20 21 22 23 24 25
26 27 28 29 30 31

No hay eventos en el calendario.

* Conectados

  • Punto Visitantes: 18
  • Punto Oculto: 0
  • Punto Usuarios: 0

No hay usuarios conectados.

AUDIO A TROMPICONES AL RENDERIZAR A MP4 CON VEGAS14

Iniciado por Xerax, 23 de Enero de 2020, 18:48:02

Tema anterior - Siguiente tema

Xerax

Hola,
He grabado un video usando filmicpro y android. Lo exporta a mp4:
1920x1080
velocidad datos 31955kbps
velocidad bits total 322213
29fps (no se por que no es 29,97)
AUDIO
velocidad bits 257kbps
2 estereo
48kHZ

Renderizo con xdcam ex mp4, ajustando velocidad fps, y el audio va a trompicones.
En cambio, renderizo con sony xavc, y me lo guarda en .mxf. y perfecto.

En los dos caso, pcm, 48khz, 16bit, 2 canales, estereo.

Alguien sabe que puede pasar?

Gracias de antemano.


Xerax

Por cierto, lo renderizado lo reproduzco con la última versión de vlc media player

Xerax

General
Complete name                            : IMG_8957.mov
Format                                   : MPEG-4
Format profile                           : QuickTime
Codec ID                                 : qt   0000.00 (qt  )
File size                                : 302 MiB
Duration                                 : 56 s 142 ms
Overall bit rate mode                    : Variable
Overall bit rate                         : 45.1 Mb/s
Encoded date                             : UTC 2020-01-21 11:16:40
Tagged date                              : UTC 2020-01-21 11:16:44
Writing library                          : Apple QuickTime
com.apple.quicktime.creationdate         : 2020-01-21T11:09:06+01:00

Video
ID                                       : 1
Format                                   : AVC
Format/Info                              : Advanced Video Codec
Format profile                           : High@L5.1
Format settings                          : CABAC / 1 Ref Frames
Format settings, CABAC                   : Yes
Format settings, ReFrames                : 1 frame
Format settings, GOP                     : M=1, N=30
Codec ID                                 : avc1
Codec ID/Info                            : Advanced Video Coding
Duration                                 : 56 s 142 ms
Bit rate                                 : 44.9 Mb/s
Width                                    : 3 840 pixels
Height                                   : 2 160 pixels
Display aspect ratio                     : 16:9
Frame rate mode                          : Variable
Frame rate                               : 29.970 (29970/1000) FPS
Minimum frame rate                       : 28.571 FPS
Maximum frame rate                       : 30.000 FPS
Color space                              : YUV
Chroma subsampling                       : 4:2:0
Bit depth                                : 8 bits
Scan type                                : Progressive
Bits/(Pixel*Frame)                       : 0.181
Stream size                              : 301 MiB (100%)
Title                                    : Core Media Video
Encoded date                             : UTC 2020-01-21 11:16:40
Tagged date                              : UTC 2020-01-21 11:16:44
Color range                              : Limited
Color primaries                          : BT.709
Transfer characteristics                 : BT.709
Matrix coefficients                      : BT.709
Codec configuration box                  : avcC

Audio
ID                                       : 2
Format                                   : AAC LC
Format/Info                              : Advanced Audio Codec Low Complexity
Codec ID                                 : mp4a-40-2
Duration                                 : 56 s 140 ms
Source duration                          : 56 s 192 ms
Bit rate mode                            : Variable
Bit rate                                 : 92.2 kb/s
Channel(s)                               : 1 channel
Channel layout                           : C
Sampling rate                            : 44.1 kHz
Frame rate                               : 43.066 FPS (1024 SPF)
Compression mode                         : Lossy
Stream size                              : 632 KiB (0%)
Source stream size                       : 632 KiB (0%)
Title                                    : Core Media Audio
Encoded date                             : UTC 2020-01-21 11:16:40
Tagged date                              : UTC 2020-01-21 11:16:44

Other #1
Type                                     : meta
Duration                                 : 56 s 142 ms
Bit rate mode                            : VBR

Other #2
Type                                     : meta
Duration                                 : 56 s 142 ms

Poucopelo

Hay cosas de tu consulta que me extrañan.

En el primer mensaje entiendo que grabas en mp4 1920x108 con el audio a 257kbps a 48kHz. Supongo que es como sale del móvil ¿no?.
Y dices que exportas el audio en pcm, estéreo a 48kHz.

Pero en el tercer mensaje, donde pones el MediaInfo, los datos de exportación son otros:
Audio mono AAC a 92.2 kb/s y 44.1 kHz.

No creo que sea la causa del problema, pero es una mala elección.

Tampoco entiendo que hinches el material a 3840 x 2160.
¿Hay alguna razón para subir la resolución del vídeo y bajar la del audio?.

Saludos.

Xerax

Hola,
El video es a 4k pero renderizo a full hd. Ya he encontrado el problema: el audio es aac y no pcm.
He renderizado con codec avc y audio aac y me va bien ya.
Merci.
El problema tengo ahora con el variable frame rate. Voy a postear ahora.
Gracias a todos

sara2020


Powered by SMFPacks Menu Editor Mod
Powered by SMFPacks Media Embedder