PUBLICIDAD

Welcome to videoedicion.org (v8.2.1). Please login or sign up.

12 de Agosto de 2022, 04:48:20

Login with username, password and session length

PUBLICIDAD

Temas Recientes

39 Visitantes, 0 Usuarios

PUBLICIDAD

Compra y colabora

Si usas estos banners para hacer tus compras, recibiremos una pequeña comisión. ¡Gracias por colaborar!


 




Código VID15 para
un 15% en planes anuales


Problema con premiere

Iniciado por miguelsat, 18 de Julio de 2016, 16:15:42

Tema anterior - Siguiente tema

miguelsat

Hola tengo un problemita, resulta que al importar vídeos en mp4, en algunos me elimina los primeros segundos de vídeo dejando intacto el audio y por tanto se desincroniza, espero vuestra ayuda.  :)

Poucopelo

Danos más información del origen de esos videos, ¿Cámara? ¿Internet? ¿Captura?
¿Pasa con todos? ¿Con alguno en concreto?
Usa Media Info en modo Texto, copia y pega los datos que salgan.

Saludos.

miguelsat

Es un documental descargado de internet, esta en bdremux y estas son las propiedades del capitulo sin conversion ninguna en mkv

General
Unique ID                   : 245535131129778865084126719198826471516 (0xB8B8589CE7D274A999C7F2E9B9B6205C)
Complete name               : E:\Through the wormhole\Mysterien des weltalls S03 1080p\Through the Wormhole Season 3\TW-10.mkv
Format                      : Matroska
Format version              : Version 4 / Version 2
File size                   : 3.79 GiB
Duration                    : 43 min
Overall bit rate mode       : Variable
Overall bit rate            : 12.4 Mb/s
Encoded date                : UTC 2014-06-13 07:14:39
Writing application         : mkvmerge v6.2.0 ('Promised Land') built on Apr 28 2013 12:22:01
Writing library             : libebml v1.3.0 + libmatroska v1.4.0

Video
ID                          : 1
Format                      : AVC
Format/Info                 : Advanced Video Codec
Format profile              : High@L4.1
Format settings, CABAC      : Yes
Format settings, ReFrames   : 4 frames
Codec ID                    : V_MPEG4/ISO/AVC
Duration                    : 43 min
Bit rate mode               : Variable
Bit rate                    : 11.7 Mb/s
Maximum bit rate            : 25.0 Mb/s
Width                       : 1 920 pixels
Height                      : 1 080 pixels
Display aspect ratio        : 16:9
Frame rate mode             : Constant
Frame rate                  : 25.000 FPS
Standard                    : PAL
Color space                 : YUV
Chroma subsampling          : 4:2:0
Bit depth                   : 8 bits
Scan type                   : Interlaced
Scan type, store method     : Separated fields
Scan order                  : Top Field First
Bits/(Pixel*Frame)          : 0.225
Stream size                 : 3.56 GiB (94%)
Language                    : English
Default                     : Yes
Forced                      : No
Color range                 : Limited
Color primaries             : BT.709
Transfer characteristics    : BT.709
Matrix coefficients         : BT.709

Audio #1
ID                          : 2
Format                      : AC-3
Format/Info                 : Audio Coding 3
Format profile              : Dolby Digital
Mode extension              : CM (complete main)
Format settings, Endianness : Big
Codec ID                    : A_AC3
Duration                    : 43 min
Bit rate mode               : Constant
Bit rate                    : 256 kb/s
Channel(s)                  : 2 channels
Channel positions           : Front: L R
Sampling rate               : 48.0 kHz
Frame rate                  : 31.250 FPS (1536 spf)
Compression mode            : Lossy
Stream size                 : 80.0 MiB (2%)
Language                    : English
Default                     : Yes
Forced                      : No

Audio #2
ID                          : 3
Format                      : DTS
Format/Info                 : Digital Theater Systems
Mode                        : 16
Format settings, Endianness : Big
Codec ID                    : A_DTS
Duration                    : 43 min
Bit rate mode               : Constant
Bit rate                    : 255 kb/s
Channel(s)                  : 2 channels
Channel positions           : Front: L R
Sampling rate               : 48.0 kHz
Frame rate                  : 93.750 FPS (512 spf)
Bit depth                   : 24 bits
Compression mode            : Lossy
Stream size                 : 79.7 MiB (2%)
Language                    : English
Default                     : No
Forced                      : No


Para poder importarlo en premiere debo cambiarle el contenedor a mp4 con mediacoder, estas son las propiedades del mp4

General
Complete name               : E:\Through the wormhole\Mysterien des weltalls S03 1080p\Through the Wormhole Season 3\TW-10.mp4
Format                      : MPEG-4
Format profile              : Base Media
Codec ID                    : isom (isom/iso2/avc1/mp41)
File size                   : 3.72 GiB
Duration                    : 43 min
Overall bit rate mode       : Variable
Overall bit rate            : 12.2 Mb/s
Writing application         : Lavf56.40.101

Video
ID                          : 1
Format                      : AVC
Format/Info                 : Advanced Video Codec
Format profile              : High@L4.1
Format settings, CABAC      : Yes
Format settings, ReFrames   : 4 frames
Codec ID                    : avc1
Codec ID/Info               : Advanced Video Coding
Duration                    : 43 min
Bit rate mode               : Variable
Bit rate                    : 11.9 Mb/s
Maximum bit rate            : 25.0 Mb/s
Width                       : 1 920 pixels
Height                      : 1 080 pixels
Display aspect ratio        : 16:9
Frame rate mode             : Variable
Frame rate                  : 50.000 FPS
Minimum frame rate          : 10.000 FPS
Maximum frame rate          : 12 800.000 FPS
Original frame rate         : 25.000 FPS
Standard                    : PAL
Color space                 : YUV
Chroma subsampling          : 4:2:0
Bit depth                   : 8 bits
Scan type                   : Interlaced
Scan type, store method     : Separated fields
Scan order                  : Top Field First
Bits/(Pixel*Frame)          : 0.115
Stream size                 : 3.64 GiB (98%)
Language                    : English
Color range                 : Limited
Color primaries             : BT.709
Transfer characteristics    : BT.709
Matrix coefficients         : BT.709

Audio
ID                          : 2
Format                      : AC-3
Format/Info                 : Audio Coding 3
Format profile              : Dolby Digital
Mode extension              : CM (complete main)
Format settings, Endianness : Big
Codec ID                    : ac-3
Duration                    : 43 min
Bit rate mode               : Constant
Bit rate                    : 256 kb/s
Channel(s)                  : 2 channels
Channel positions           : Front: L R
Sampling rate               : 48.0 kHz
Frame rate                  : 31.250 FPS (1536 spf)
Bit depth                   : 16 bits
Compression mode            : Lossy
Stream size                 : 80.0 MiB (2%)
Language                    : English
Default                     : Yes
Alternate group             : 1


Al abrir el capitulo en mp4 con k lite codec no le falta ningun segundo, esta igual que el mkv, pero al importarlo en premiere borra unos segundos del principio, con otros capitulos de la temporada no borra nada, es un poco raro.  :-\

juanmario

Hay ciertas cuestiones que debes saber sobre Premiere, y una de ellas es que no soporta velocidad de cuadro variable, no es profesional.


El original, MKV:
Frame rate mode             : Constant


El MP4 creado con Mediacoder:
Frame rate mode             : Variable
Frame rate                  : 50.000 FPS
Minimum frame rate          : 10.000 FPS
Maximum frame rate          : 12 800.000 FPS
Original frame rate         : 25.000 FPS


Como se ve no solo es velocidad de cuadro variable sino que ademas el Mediacoder ha tenido una descarga de adrenalina, jaja.


Porque no pruebas con el XMedia Recode con la opción copy para cambiar de contenedor.


Saludos

miguelsat

También he probado con xmedia recode y hace lo mismo, me borra unos segundos del principio, me gustar haber aprendido todo sobre el premiere pero no he encontrado cursos completos, que conversor me recomiendas para reducir el bitrate sin perder demasiada calidad?

PUBLICIDAD


Poucopelo

Sospecho que haya algún frame corrupto en el inicio del video.
El reproductor es capaz de reconstruir la información que falta, pero Premiere no.

Cita de: miguelsat en 19 de Julio de 2016, 11:42:46
que conversor me recomiendas para reducir el bitrate sin perder demasiada calidad?
¿Sólo vas a usar Premiere para bajar el bitrate?.
En tal caso usa XMedia Recode, pero hazte a la idea de que al reducir el bitrate vas a perder calidad.

Saludos.

miguelsat

Me estoy bajando el bluray completo a ver que tal, tengo que reducir el bitrate de 11 a 7 para que quepa la temporada entera en un bluray además no creo que se note mucho la disminución de calidad, gracias, saludos.

PUBLICIDAD

El spam de este foro está controlado por CleanTalk