• Welcome to videoedicion.org (v8.2). Please login or sign up.
 

¡Que empiece la fiesta!

 

Nueva convocatoria del concurso de vídeos del 20º Aniversario de videoedicion.org

 
Número de vídeos recibidos a fecha 18/10/21: 3
Probabilidad de ganar UNO DE LOS DOS CUPONES DE 300 $ (dólares americanos): 50%

PUBLICIDAD

Compra y colabora

Si usas estos banners para hacer tus compras, recibiremos una pequeña comisión. ¡Gracias por colaborar!



5% de descuento hasta fin de 2021
con el código VE20




Código VID15 para
un 15% en planes anuales



Welcome to Visitante. Please login or sign up.

01 de diciembre de 2021, 01:30:43

PUBLICIDAD

Temas Recientes

70 Visitantes, 0 Usuarios

PUBLICIDAD

Problema con doble pista de audio

Iniciado por Seber, 14 de febrero de 2016, 15:23:05

Tema anterior - Siguiente tema

Seber

Hola, es la primera vez que entro a este foro ya que después de mucho indagar, no he llegado a ninguna conclusión. Voy a intentar relatar mi problema del modo más sencillo posible. Resulta que he grabado un vídeo con un programa llamado Action, el cual me graba el audio del sistema en una pista de audio y mi voz, captada por un micrófono (obviamente) en otra pista de audio. La cuestión es que al reproducir el vídeo en formato AVI, es posible escoger la pista a escuchar en cualquier reproductor, cosa lógica y normal, pero al importarlo a premiere, solo reconoce la pista 1, que es la que lleva el audio del sistema. En este caso la pista 2 (mi voz) es como si no existiera.

En cambio si uso el programa de grabación y hago un archivo en mp4, en este caso, premiere sí me reconoce las dos pistas de audio, pero me desincroniza el vídeo...

Así que lo más sencillo que veo es... ¿cómo hago que premiere me reconozca las dos pistas de audio del archivo AVI?

Saludos.

Poucopelo

Hola Seber. Bienvenido.
No das detalles del video avi en cuestión, ni de las características del proyecto así que voy a tirar de intuición.
Prueba a crear un proyecto nuevo, y cuando te pida las características del proyecto cancela. Luego importa el material , selecciona el video y crea una nueva secuencia  haciendo Archivo > Nuevo > Secuencia desde clip.
Comprueba si reconoce los dos audios. Si no lo hace es probable que el video tenga un formato de audio que Premiere no interpreta correctamente.

Ya nos contarás. Saludos.



Seber

15 de febrero de 2016, 10:33:51 #2 Ultima modificación: 15 de febrero de 2016, 14:38:53 por Seber
Pues lo que mencionas es como lo hago, al crear un proyecto nuevo, importo el vídeo y creo una secuencia con él. La cuestión es que los dos audios están en el mismo formato. Luego te pongo "media info" a ver si así lo ves más claro.



General
Complete name                            : C:\Users\Sergio\Videos\Action\ACCGame-Win32-Shipping 14-02-2016 11-52-41 - copia.avi
Format                                   : AVI
Format/Info                              : Audio Video Interleave
Format profile                           : OpenDML
File size                                : 3.29 GiB
Duration                                 : 4mn 18s
Overall bit rate                         : 109 Mbps


Video
ID                                       : 0
Format                                   : FICV
Codec ID                                 : FICV
Duration                                 : 4mn 18s
Bit rate                                 : 106 Mbps
Width                                    : 1 920 pixels
Height                                   : 1 080 pixels
Display aspect ratio                     : 16:9
Frame rate                               : 30.000 fps
Bits/(Pixel*Frame)                       : 1.707
Stream size                              : 3.20 GiB (97%)


Audio #1
ID                                       : 1
Format                                   : PCM
Format settings, Endianness              : Little
Format settings, Sign                    : Signed
Codec ID                                 : 1
Duration                                 : 4mn 18s
Bit rate mode                            : Constant
Bit rate                                 : 1 536 Kbps
Channel(s)                               : 2 channels
Sampling rate                            : 48.0 KHz
Bit depth                                : 16 bits
Stream size                              : 47.3 MiB (1%)
Alignment                                : Aligned on interleaves
Interleave, duration                     : 10 ms (0.30 video frame)


Audio #2
ID                                       : 2
Format                                   : PCM
Format settings, Endianness              : Little
Format settings, Sign                    : Signed
Codec ID                                 : 1
Duration                                 : 4mn 18s
Bit rate mode                            : Constant
Bit rate                                 : 1 536 Kbps
Channel(s)                               : 2 channels
Sampling rate                            : 48.0 KHz
Bit depth                                : 16 bits
Stream size                              : 47.3 MiB (1%)
Alignment                                : Aligned on interleaves
Interleave, duration                     : 10 ms (0.30 video frame)


juanmario

Por el comentario me imagino que usas Premiere CC 2015, tienes suerte ya que versiones anteriores no reconocen ni el MP4, no te gastes, espero que el Action exporte en MP4.




Saludos

Poucopelo

No sé, el informe de MediaInfo no me aclara mucho, tendría que probarlo para poder opinar con fundamento.
Compañero Seber, ¿podrías subir un fragmento del video a Wetransfer, Sendspace, Mega o cualquier otro alojamiento?.

Saludos

PUBLICIDAD


Seber

18 de febrero de 2016, 14:16:01 #5 Ultima modificación: 18 de febrero de 2016, 14:23:51 por Seber
https://mega.nz/#!ZIcQlAqZ!5-JMU9ovp1LEXlFb_A1QTQhr8NxiR9l21FjrQUyIz0I

He hecho un vídeo más breve. A ver si sacamos algo en claro. Y uso Premiere Pro CC 2014


Poucopelo

Descargado.
No puedo ver el video porque no tengo el códec FICV. Más tarde lo resolveré.
Puedo oir una música en estereo con efectos y una voz ¿femenina? diciendo dos palabras ininteligibles.
¿Debería oir algo más?.

Saludos

Seber

Efectivamente eso es la pista 1 del sonido del sistema. Luego la pista 2, la cual no coge premiere soy yo hablando.

XarquS

Te he escuchado.

Prueba a crear un nuevo proyecto en vez de estéreo que sea multicanal y pon 4 canales. A ver que pasa, pero tendría que abrirse.

Yo no puedo probarlo porque no se abre en Premiere mientras no esté instalado el codec de video.

X.
"...a pesar de ellos, yo soy del Sur y de la mar" (María Zambrano).

juanmario

Cita de: Seber en 18 de febrero de 2016, 14:16:01
Y uso Premiere Pro CC 2014



Tienes suerte de que te reconozca la 2 pista en mp4, a muchos no.
Lo seguro es el CC2015 en MP4 e igual frecuencia de muestreo., no insistas con el avi porque no va.


Saludos

fistros

Saber, lo quiero bajar pero me pide contraseña. Cual es?

Seber


fistros


fistros


Seber

19 de febrero de 2016, 11:37:06 #14 Ultima modificación: 19 de febrero de 2016, 13:21:32 por Seber
Si copias el enlace entero te tiene que salir para descargar sí o sí. Y no creo que tener cuenta sea necesario

PUBLICIDAD

El spam de este foro está controlado por CleanTalk