El audio se retrasa en Adobe Premiere
 
down

Publicidad

Compra y colabora

Si pinchas en este enlace/banner antes de hacer tus compras en Amazon recibiremos una pequeña comisión para pagar el servidor. ¡Gracias!

* Usuario

 
 
Bienvenido(a), Visitante. Por favor, ingresa o regístrate. ¿Perdiste tu email de activación?

Publicidad

* Calendario

Noviembre 2020
Dom Lun Mar Mié Jue Vie Sáb
1 2 3 4 5 6 7
8 9 10 11 12 13 14
15 16 17 18 19 20 21
22 23 24 25 26 27 28
29 [30]

No hay eventos en el calendario.

* Conectados

Publicidad

El audio se retrasa en Adobe Premiere

Iniciado por juanmafdez, 25 de Octubre de 2017, 16:37:48

Tema anterior - Siguiente tema

juanmafdez

Tengo vídeos que capturo de televisión y cada vez que los importo a Premiere (da igual la versión) al principio si tiene al audio al mismo tiempo que el vídeo pero según pasa el vídeo la voz se retrasa.


Adjunto un ejemplo de la información de un fichero.
General
Complete name :C:\Users\XXXXXXXXX\Desktop\10-24_06-00-30_antena3 HD (spa)_-_052.ts.mp4
Format :MPEG-4
Format profile :Base Media
Codec ID :isom (isom/iso2/avc1/mp41)
File size :474 MiB
Duration :17 min 36 s
Overall bit rate :3 761 kb/s
Writing application :Lavf57.71.100
Video
ID :
1
Format :
AVC
Format/Info :
Advanced Video Codec
Format profile :
High@L4.1
Format settings, CABAC :
Yes
Format settings, ReFrames :
4 frames
Codec ID :
avc1
Codec ID/Info :
Advanced Video Coding
Duration :
17 min 36 s
Bit rate :
3 624 kb/s
Width :
1 920 pixels
Height :
1 080 pixels
Display aspect ratio :
16:9
Frame rate mode :
Variable
Frame rate :
49.905 FPS
Minimum frame rate :
1.923 FPS
Maximum frame rate :
50.000 FPS
Original frame rate :
25.000 FPS
Color space :
YUV
Chroma subsampling :
4:2:0
Bit depth :
8 bits
Scan type :
Interlaced
Scan type, store method :
Separated fields
Scan order :
Top Field First
Bits/(Pixel*Frame) :
0.035
Stream size :
457 MiB (96%)
Color range :
Limited
Color primaries :
BT.709
Transfer characteristics :
BT.709
Matrix coefficients :
BT.709
Audio
ID :
2
Format :
MPEG Audio
Format version :
Version 1
Format profile :
Layer 3
Codec ID :
6B
Duration :
17 min 35 s
Bit rate mode :
Constant
Bit rate :
128 kb/s
Channel(s) :
2 channels
Sampling rate :
48.0 kHz
Compression mode :
Lossy
Stream size :
16.1 MiB (3%)
Language :
Spanish
Default :
Yes
Alternate group :
1



Muchas Gracias,.

juanmario

El problema es la velocidad de fotograma variable, Premiere no se lleva bien con eso.
Cita de: juanmafdez en 25 de Octubre de 2017, 16:37:48y cada vez que los importo a Premiere (da igual la versión)

Se que siempre fue un problema de Premiere, pero en la versión CC2017 monte uno de esos vídeos y la sincronía fue perfecta, en el CC2018 no lo probé aun.
La otra es reconvertirlo a velocidad de cuadro constante con otro programa.


Saludos

Videoadicto

Sí, el bitrate de audio y los FPS deben ser constantes.
Como ya te comenta juanmario, parece que ya está corregido en versiones modernas según he leido por ahí.

PUBLICIDAD



Powered by SMFPacks Menu Editor Mod