• Welcome to videoedicion.org (v8.2). Please login or sign up.
 

¡Que empiece la fiesta!

 

Nueva convocatoria del concurso de vídeos del 20º Aniversario de videoedicion.org

 
Número de vídeos recibidos a fecha 18/10/21: 3
Probabilidad de ganar UNO DE LOS DOS CUPONES DE 300 $ (dólares americanos): 50%

PUBLICIDAD

Compra y colabora

Si usas estos banners para hacer tus compras, recibiremos una pequeña comisión. ¡Gracias por colaborar!



5% de descuento hasta fin de 2021
con el código VE20




Código VID15 para
un 15% en planes anuales



Welcome to Visitante. Please login or sign up.

28 de octubre de 2021, 23:05:19

PUBLICIDAD

Temas Recientes

115 Visitantes, 0 Usuarios

PUBLICIDAD

Ajustes de salida para renderizar archivos 4k

Iniciado por tretocephalus, 27 de mayo de 2018, 16:48:29

Tema anterior - Siguiente tema

tretocephalus

Hola, hace un tiempo me recomendasteis esta plantilla para renderizar unos videos que tenía de una videocamara antigua:



Si alguien es tan amable, necesito una nueva plantilla para renderizar los videos de mi videocamara actual, una Panasonic hc-vx1 4k.
Los videos se van a ver en pc con monitor 4k y no me importa el tamaño del archivo, solo que se vean con la maxima calidad posible.

Los retoques que voy a hacer, son color y brillo basicamente, quizas en alguno utilice neat video.

Los datos de mediainfo son estos:


General
Complete name               : G:\DCIM\108RDPHH\S1080001.MP4
Format                      : MPEG-4
Format profile              : Base Media / Version 2
Codec ID                    : mp42 (mp42/avc1)
File size                   : 154 MiB
Duration                    : 21s 120ms
Overall bit rate mode       : Variable
Overall bit rate            : 61.0 Mbps
Encoded date                : UTC 2018-05-27 16:26:28
Tagged date                 : UTC 2018-05-27 16:26:28

Video
ID                          : 1
Format                      : AVC
Format/Info                 : Advanced Video Codec
Format profile              : High@L5.1
Format settings, CABAC      : Yes
Format settings, ReFrames   : 2 frames
Codec ID                    : avc1
Codec ID/Info               : Advanced Video Coding
Duration                    : 21s 120ms
Bit rate mode               : Variable
Bit rate                    : 60.7 Mbps
Maximum bit rate            : 70.0 Mbps
Width                       : 3 840 pixels
Height                      : 2 160 pixels
Display aspect ratio        : 16:9
Frame rate mode             : Constant
Frame rate                  : 25.000 fps
Color space                 : YUV
Chroma subsampling          : 4:2:0
Bit depth                   : 8 bits
Scan type                   : Progressive
Bits/(Pixel*Frame)          : 0.293
Stream size                 : 153 MiB (100%)
Language                    : Spanish
Encoded date                : UTC 2018-05-27 16:26:28
Tagged date                 : UTC 2018-05-27 16:26:28
Color range                 : Limited
Color primaries             : BT.709
Transfer characteristics    : BT.709
Matrix coefficients         : BT.709

Audio
ID                          : 2
Format                      : AAC
Format/Info                 : Advanced Audio Codec
Format profile              : LC
Codec ID                    : 40
Duration                    : 21s 120ms
Source duration             : 21s 163ms
Bit rate mode               : Constant
Bit rate                    : 256 Kbps
Channel(s)                  : 2 channels
Channel positions           : Front: L R
Sampling rate               : 48.0 KHz
Frame rate                  : 46.875 fps (1024 spf)
Compression mode            : Lossy
Stream size                 : 653 KiB (0%)
Source stream size          : 655 KiB (0%)
Language                    : Spanish
Encoded date                : UTC 2018-05-27 16:26:28
Tagged date                 : UTC 2018-05-27 16:26:28



XarquS

"...a pesar de ellos, yo soy del Sur y de la mar" (María Zambrano).


XarquS

Prueba a ver si esta plantilla te conviene y funciona con la aceleración de tu tarjeta nueva:






"...a pesar de ellos, yo soy del Sur y de la mar" (María Zambrano).

tretocephalus

28 de mayo de 2018, 11:24:54 #4 Ultima modificación: 28 de mayo de 2018, 12:03:38 por tretocephalus
Gracias Xarqus, te pego dos capturas sobre alguna diferencia que he encontrado:

En esta, no me aprece igual que a ti lo de (Nvidia NVENC)





En esta otra, tampoco aparen abajo las opciones NVENC y en encode mode, no me permite utilizar NV encoder. Solamente me deja Mainconcept AVC.



Saludos

PUBLICIDAD


XarquS

Creí leerte que tenías una tarjeta nVidia, ¿no? ¿Usas la 321 de Vegas Pro 15? De todos modos si no aparece es porque no la usa para renderizar, pero esto es opcional y si dispones de esta función. Usa en todo caso lo que tienes disponible que es Mainconcept.

Si prefieres usar x264vfw no tienes más que cambiar la resolución en la plantilla a 3840x2160 y aumenta el bitrate a unos 25.000.

X.
"...a pesar de ellos, yo soy del Sur y de la mar" (María Zambrano).

tretocephalus

¿A que te refieres con 321 de vegas pro 15? Uso Vegas pro 15.

La grafica es un Gygabite nvidia geforce gt 1030, ¿a lo mejor no la he configurado bien para vegas?

XarquS

Corresponde a la actualización de Vegas 15; ahora va por la 361 y lo puedes ver al iniciar el programa o en la Ayuda/Acerca de...

Compruebalo porque no estoy seguro si la 15 empezó con la aceleración NVENC desde el principio o en alguna de las últimas actualizaciones.

X.


"...a pesar de ellos, yo soy del Sur y de la mar" (María Zambrano).

tretocephalus

Hola XarquS,

Tanto cuando inicio, como en ayuda-acerca de, me pone version 15.0 (Build 177), pero no veo nada como version 321 o version 361.

XarquS

No puedes ver otra que la actualización que usas, que es la 177, la primera de salida de la 15 si mal no recuerdo. Esa cifra cambia conforme a la versión (la 15) le van corrigiendo bugs o actualizando o añadiendo alguna función. Deberías probar a actualizar a la 321 -es la que uso- o a la última que es la 361.
X.
"...a pesar de ellos, yo soy del Sur y de la mar" (María Zambrano).

tretocephalus

He actualizado a la versión 321 y aparace todo exactamente igual que en las dos capturas que puse. ¿Puede ser que Vegas no detecte correctamente la tarjeta grafica?

XarquS

O que no tengas los drivers actualizados; francamente no lo sé porque debería detectar tu tarjeta.
Cita de: tretocephalus en 29 de mayo de 2018, 12:22:17
La grafica es un Gygabite nvidia geforce gt 1030, ¿a lo mejor no la he configurado bien para vegas?
¿Y como has hecho esta configuración?

X.
"...a pesar de ellos, yo soy del Sur y de la mar" (María Zambrano).

tretocephalus


Simplemente he quitado la grafica que tenía puesta, he desinstalado los drivers de esa grafica y he metido la grafica nueva con los ultimos drivers que salen en la web del fabricante.

Pensaba que con eso sería suficiente...

XarquS

Ya suponía yo eso. Pero no sé que puede pasar, tendrías que mirar o investigar un poco a ver que te pasa, o a ver si me entero de algo por ahí.

En la ventana de configuración de Vegas, ¿te aparece para poderla elegir para acelerar el preview?

X.
"...a pesar de ellos, yo soy del Sur y de la mar" (María Zambrano).

tretocephalus

01 de junio de 2018, 11:48:31 #14 Ultima modificación: 08 de enero de 2020, 12:25:03 por tretocephalus
En donde deberia de aparecer eso, te pongo una captura para ver si lo ves:


PUBLICIDAD

El spam de este foro está controlado por CleanTalk