collapse

Publicidad

Reportar al moderador

No hay moderadores "de oficio" revisando los mensajes publicados en los foros. Sin embargo, se actúa con la máxima diligencia posible cuando alguien reporta algún contenido inapropiado.
Por favor, ayuda a mantener el foro en orden usando la opción "Reportar al moderador" que encontrarás en la esquina inferior derecha de cada mensaje siempre que lo estimes conveniente. Gracias.

Se buscan voluntarios que ayuden a etiquetar mensajes

Se buscan voluntarios que ayuden a etiquetar mensajes ¡Gracias!

[ Más información aquí ]

Tus datos

Bienvenido(a), Visitante. Por favor, ingresa o regístrate. ¿Perdiste tu email de activación?

Publicidad

Calendario

Octubre 2019
Dom Lun Mar Mié Jue Vie Sáb
1 2 3 4 5
6 7 8 9 10 11 12
13 14 15 16 17 18 19
[20] 21 22 23 24 25 26
27 28 29 30 31

No se encontraron eventos en el calendario.

Lo último del foro

Re:No consigo exportar un video con pinnacle studio 22 por J_Girona
[Hoy a las 19:30:04]


Re:No consigo exportar un video con pinnacle studio 22 por Poucopelo
[Hoy a las 18:49:01]


Re:No consigo exportar un video con pinnacle studio 22 por Fer-ana
[Hoy a las 18:22:25]


Re:Desactivar textos de convertidor Vídeo compuesto > HDMI por Gestalt73
[Hoy a las 16:43:22]


Re:Interacción entre Premier y Audition por Poucopelo
[Ayer a las 23:24:42]


Interacción entre Premier y Audition por caribows
[Ayer a las 13:55:52]


Re:El Mejor Formato de Audio por nairalis.l
[18 de Octubre de 2019, 19:59:38]


Re:Elegir programa de edición de vídeo por Somes
[18 de Octubre de 2019, 18:46:23]


Actualización de firmware para los objetivos SIGMA con montura L por ramon.cutanda
[18 de Octubre de 2019, 17:04:24]


Nueva Olympus OM-D E-M5 Mark III con promoción de preventa por ramon.cutanda
[18 de Octubre de 2019, 16:25:53]


Re:Lineas de Interferencia en Video VHS. por Poucopelo
[18 de Octubre de 2019, 12:27:46]


Re:Audio en SONY HDR-XR500V (HANDYCAM) por Poucopelo
[18 de Octubre de 2019, 11:05:51]


Re:Sony HVR-V1E por scrappy
[18 de Octubre de 2019, 00:00:40]


Re:Acciones en Final Cut ??? por arusfernando
[17 de Octubre de 2019, 16:08:15]


Sony HVR-V1E por laportugal
[17 de Octubre de 2019, 13:14:58]


Usuarios conetados

  • Punto Visitantes: 47
  • Punto Oculto: 0
  • Punto Usuarios: 0

No hay usuarios en linea.

Estadísticas

  • stats Total de Usuarios: 55,023
  • stats Total de Mensajes: 447,168
  • stats Total de Temas: 77,296
  • stats Total de Categorías: 6
  • stats Total de Foros: 121
  • stats Máx. usuarios conectados (simultáneamente): 507

Publicidad

Mostrar Mensajes

Esta sección te permite ver todos los mensajes escritos por este usuario. Ten en cuenta que sólo puedes ver los mensajes escritos en zonas a las que tienes acceso en este momento.

Mensajes - tretocephalus

1
Pues muchas gracias por la ayuda, poco a poco voy aprendiendo cosas que espero me sirvan para seguir mejorando, gracias por la ayuda y también por la paciencia :) :)

Saludos
2
Cierto, si codifico en AMD VCE con la grafica me obliga a hacerlo en bit variable, para poder hacerlo en constante tengo que renderizar con el procesador en mainconcept AVC.

CitarEn el mundo de la compresión nunca puede haber datos exactos e inamovibles. Los bitrates constantes pueden ser algo chungo si están un poco bajos para videos con mucho meneo.

Pero si colocas un bitrate alto, por ejemplo en 50.000.000 ¿no te evitas ese problema? No me importaría perder un poco de tiempo en el renderizado si con eso gano un poco de calidad.

Y por otro lado, si coloco en la velocidad de bit variable el maximo y la media en 50.000.000, (como en la captura) ¿no es igual que colocar la velocidad de bit constante? Por que en ese caso si podría renderizar con la grafica...


3
Pues no tenía ni idea :( , yo lo hacía por guardar una copia del original pensando que simplemente unia los clips, pero veo que la estaba liando... En fin gracias por informarme y me alegro de que me corrijais en mi error.

Volviendo al tema, creo que esta plantilla sería la correcta, pero no me deja poner el bit rate constante y si no estoy equivocado así se consigue una mayor calidad. Creeis que hago algo incorrecto si lo coloco como en esta captura, tanto el maximo como la media en 50.000.000


4
Rectifico, me acabo de dar cuenta de que cuando grabo un video y directamente le paso el mediainfo me da esto:


Format                      : MPEG-4
Format profile              : Base Media / Version 2
Codec ID                    : mp42 (mp42/avc1)
File size                  : 3.98 GiB
Duration                    : 9 min 17 s
Overall bit rate mode      : Variable
Overall bit rate            : 61.3 Mb/s
Encoded date                : UTC 2019-06-30 23:23:42
Tagged date                : UTC 2019-06-30 23:23:42

Video
ID                          : 1
Format                      : AVC
Format/Info                : Advanced Video Codec
Format profile              : High@L5.1
Format settings            : CABAC / 2 Ref Frames
Format settings, CABAC      : Yes
Format settings, Reference  : 2 frames
Codec ID                    : avc1
Codec ID/Info              : Advanced Video Coding
Duration                    : 9 min 17 s
Bit rate mode              : Variable
Bit rate                    : 60.9 Mb/s
Maximum bit rate            : 70.0 Mb/s
Width                      : 3 840 pixels
Height                      : 2 160 pixels
Display aspect ratio        : 16:9
Frame rate mode            : Constant
Frame rate                  : 25.000 FPS
Color space                : YUV
Chroma subsampling          : 4:2:0
Bit depth                  : 8 bits
Scan type                  : Progressive
Bits/(Pixel*Frame)          : 0.294
Stream size                : 3.95 GiB (99%)
Language                    : Spanish
Encoded date                : UTC 2019-06-30 23:23:42
Tagged date                : UTC 2019-06-30 23:23:42
Color range                : Limited
Color primaries            : BT.709
Transfer characteristics    : BT.709
Matrix coefficients        : BT.709
Codec configuration box    : avcC

Audio
ID                          : 2
Format                      : AAC LC
Format/Info                : Advanced Audio Codec Low Complexity
Codec ID                    : mp4a-40-2
Duration                    : 9 min 17 s
Source duration            : 9 min 17 s
Bit rate mode              : Constant
Bit rate                    : 256 kb/s
Channel(s)                  : 2 channels
Channel layout              : L R
Sampling rate              : 48.0 kHz
Frame rate                  : 46.875 FPS (1024 SPF)
Compression mode            : Lossy
Stream size                : 16.8 MiB (0%)
Source stream size          : 16.8 MiB (0%)
Language                    : Spanish
Encoded date                : UTC 2019-06-30 23:23:42
Tagged date                : UTC 2019-06-30 23:23:42



Pero como la videocamara separa en fragmentos cuando se superan los 3.97 gb, si grabo por ejemplo durante 15 minutos, son dos fragmentos que siempre junto con un programa llamado MP4joiner. Uso este programa por que en principio pensaba que solamente unía tal cual los archivos, pero veo que modifica alguna cosa, no se si de forma negativa.

El mediainfo de las uniones, me da tal que esto:

Format                      : MPEG-4
Format profile              : Base Media
Codec ID                    : isom (isom)
File size                  : 18.8 GiB
Duration                    : 43 min 55 s
Overall bit rate mode      : Variable
Overall bit rate            : 61.1 Mb/s
Encoded date                : UTC 2019-07-01 17:32:35
Tagged date                : UTC 2019-07-01 17:32:35

Video
ID                          : 1
Format                      : AVC
Format/Info                : Advanced Video Codec
Format profile              : High@L5.1
Format settings            : CABAC / 2 Ref Frames
Format settings, CABAC      : Yes
Format settings, Reference  : 2 frames
Codec ID                    : avc1
Codec ID/Info              : Advanced Video Coding
Duration                    : 43 min 55 s
Source duration            : 43 min 55 s
Bit rate mode              : Variable
Bit rate                    : 60.9 Mb/s
Maximum bit rate            : 70.0 Mb/s
Width                      : 3 840 pixels
Height                      : 2 160 pixels
Display aspect ratio        : 16:9
Frame rate mode            : Variable
Frame rate                  : 25.000 FPS
Minimum frame rate          : 19.737 FPS
Maximum frame rate          : 25.000 FPS
Color space                : YUV
Chroma subsampling          : 4:2:0
Bit depth                  : 8 bits
Scan type                  : Progressive
Bits/(Pixel*Frame)          : 0.294
Stream size                : 18.7 GiB (100%)
Source stream size          : 18.7 GiB (100%)
Language                    : Spanish
Encoded date                : UTC 2019-06-30 23:23:42
Tagged date                : UTC 2019-07-01 17:39:43
Color range                : Limited
Color primaries            : BT.709
Transfer characteristics    : BT.709
Matrix coefficients        : BT.709
Codec configuration box    : avcC

Audio
ID                          : 2
Format                      : AAC LC
Format/Info                : Advanced Audio Codec Low Complexity
Codec ID                    : mp4a-40-2
Duration                    : 43 min 55 s
Source duration            : 43 min 55 s
Bit rate mode              : Variable
Bit rate                    : 253 kb/s
Maximum bit rate            : 259 kb/s
Channel(s)                  : 2 channels
Channel layout              : L R
Sampling rate              : 48.0 kHz
Frame rate                  : 46.875 FPS (1024 SPF)
Compression mode            : Lossy
Stream size                : 79.6 MiB (0%)
Source stream size          : 79.6 MiB (0%)
Language                    : Spanish
Encoded date                : UTC 2019-06-30 23:23:42
Tagged date                : UTC 2019-07-01 17:39:43



Y aquí si que me dice que el frame rate es variable.


Saludos
5
Pues si, seguramente me tocará empezar con ese tipo de cosas, aunque me cueste.

La camara con la que grabo es una panasonic hc-vx1, siempre en 4k y modo manual, no grabo con movil.

He llamado a panasonic, por que yo no encontraba la opción para poner el frame rate en fijo y me han dicho que siempre es variable entre 5 y 25 fps, que no hay opción de ponerlo fijo.

Saludos
6
CitarCreo que el mejor consejo que podría darte es que deberías invertir un poco más de tiempo en aprender cosas básicas relacionadass con la compresión y no depender tanto de lo que te digamos unos u otros y plantillas prefabricadas

El problema es que todo lo que encuentro es muy denso y me pierdo con facilidad. Estaría bien si pudieras explicar de forma sencilla que es lo que se utiliza para renderizar por ejemplo este video y por que.

Así para otros videos ya sabría a que principios atenerme...
CitarNo entiendo bien en qué te puedo ayudar poniendo el mediainfo; no soy ingeniero, soy editor y más sin saber si los datos son del video original o el renderizado. De todos modos se puede ver un dato escalofriante como es que el frame rate es variable. Esto es algo que casi siempre ocasiona tener que llamar a Houston con el famoso "tenemos un problema" :-)

Los datos son de un video original sin renderizar, el 90% de los videos que hago los hago exactamente en esas mismas condiciones, así que utilizo siempre la misma configuración grabando en modo manual, 1/50, f2.4 y enfocando muy bien que eso es fundamental.

Es por eso que todos los videos los edito con la misma configuración.

Por otro lado, los datos de mediainfo al menos han servido para que te dieras cuenta de algo de lo que no tenía ni idea. No sabía que tuviera el frame rate variable ;D ;D ;D

He estado buscando en las opciones de la camara y no veo donde se puede marcar para que esté fijo, ¿es que tiene algún otro nombre?

Saludos
7
He hecho la prueba con esta plantilla y renderiza correctamente, si usaba la otra es por que hace tiempo me dijiste que para mi video de salida me daría buena calidad de imagen.



Esta plantilla, que te parece, crees que debo cambiar algo ¿o así está bien?

Te voy a poner los datos de mediainfo por si me puedes ayudar:

Format                      : MPEG-4
Format profile              : Base Media
Codec ID                    : isom (isom)
File size                  : 21.5 GiB
Duration                    : 50 min 16 s
Overall bit rate mode      : Variable
Overall bit rate            : 61.1 Mb/s
Encoded date                : UTC 2019-05-09 14:00:41
Tagged date                : UTC 2019-05-09 14:00:41

Video
ID                          : 1
Format                      : AVC
Format/Info                : Advanced Video Codec
Format profile              : High@L5.1
Format settings            : CABAC / 2 Ref Frames
Format settings, CABAC      : Yes
Format settings, Reference  : 2 frames
Codec ID                    : avc1
Codec ID/Info              : Advanced Video Coding
Duration                    : 50 min 16 s
Source duration            : 50 min 16 s
Bit rate mode              : Variable
Bit rate                    : 60.8 Mb/s
Maximum bit rate            : 70.0 Mb/s
Width                      : 3 840 pixels
Height                      : 2 160 pixels
Display aspect ratio        : 16:9
Frame rate mode            : Variable
Frame rate                  : 25.000 FPS
Minimum frame rate          : 19.737 FPS
Maximum frame rate          : 25.007 FPS
Color space                : YUV
Chroma subsampling          : 4:2:0
Bit depth                  : 8 bits
Scan type                  : Progressive
Bits/(Pixel*Frame)          : 0.293
Stream size                : 21.4 GiB (100%)
Source stream size          : 21.4 GiB (100%)
Language                    : Spanish
Encoded date                : UTC 2019-05-06 15:48:28
Tagged date                : UTC 2019-05-09 14:17:41
Color range                : Limited
Color primaries            : BT.709
Transfer characteristics    : BT.709
Matrix coefficients        : BT.709
Codec configuration box    : avcC

Audio
ID                          : 2
Format                      : AAC LC
Format/Info                : Advanced Audio Codec Low Complexity
Codec ID                    : mp4a-40-2
Duration                    : 50 min 16 s
Source duration            : 50 min 16 s
Bit rate mode              : Variable
Bit rate                    : 253 kb/s
Maximum bit rate            : 259 kb/s
Channel(s)                  : 2 channels
Channel layout              : L R
Sampling rate              : 48.0 kHz
Frame rate                  : 46.875 FPS (1024 SPF)
Compression mode            : Lossy
Stream size                : 91.1 MiB (0%)
Source stream size          : 91.1 MiB (0%)
Language                    : Spanish
Encoded date                : UTC 2019-05-06 15:48:28
Tagged date                : UTC 2019-05-09 14:17:41
8
Así es como lo estaba haciendo lanchone, pero por lo que veo no renderiza con la grafica.

Y para mas inri, no se que pasa ahora que cuando intento renderizar con esta configuración, que es la que solía utilizar en el otro pc, me sale un aviso y no me deja.





¿Me podeis recomendar una configuración que renderice en maxima calidad sin importar el peso final del archivo y que lo haga con la grafica?

Saludos
9
Vegas Pro / Re:Baja resolución en monitor 4k
29 de Junio de 2019, 10:46:47
Finalmente pude solucionar el problema, os pongo como lo he hecho por si os pasa a alguno ahora o en el futuro.

Solo hay que seleccionar la opción para que sea Vegas quien realice el ajuste de la proporción en vez de el sistema operativo.

Para ello hay que ir a archivos de programa y pinchar en propiedades de el ejecutable, cambiar configuracion elevada de PPP, pinchar en invalidar el comportamiento de ajuste de PPP alto y ordenar que el ajuste lo haga la aplicación.

Aquí esta la imagen:

10
Muy buenas, he cambiado de ordenador y he puesto un procesador ryzen 2600 sin grafica integrada y una tarjeta grafica asus rx 560.

Cuando renderizo, el administrador de tareas me dice que el procesador está sobre el 60% mientras que la tarjeta grafica se queda en el 6%.

Quiere decir esto que el procesador está renderizando, ¿o no puede ser ya que el procesador no tiene tarjeta grafica?

Saludos
11
Vegas Pro / Baja resolución en monitor 4k
21 de Junio de 2019, 18:39:53
Muy buenas,

tengo un monitor 4k LG 27UD58-B y un pc con placa base MSI B450I Gaming Plus AC, procesador RYZEN 5 2600 y una tarjeta grafica ASUS RX560-O4G-EVO Radeon RX 560 4 GB GDDR5.

Todos los componentes son optimos para video 4k, pero hay algunos programas entre ellos  Vegas que se ven con menos resolución. Si abro Vegas al lado de un programa que reproduce en 4k, se nota la diferencia:



Incluso el video que añado a la ventana de vista previa se ve en baja resolución lo que hace que no se aprecien los retoques que vas haciendo.

¿Sabeis como puedo hacer para verlo en 4k? Supongo que un programa como vegas que está pensado para editar video habrá pensado en la gente que se va pasando al 4k.

Saludos
12
Gracias, tienes razón, abriré un nuevo tema entonces ;)
13
No soy muy experto con este tipo de programas, pero lo intento, pongo un enlace a ver si se puede descargar:


https://drive.google.com/open?id=1YzrrINBLB8HqYzsqsQvrXRN3dMyIN6kY

Por otro lado, he notado que Vegas se ve con poca resolución y no solo la vista previa, sino también el resto de ventanas incluso las letras de las opciones.
Quizas el problema venga del monitor 4k, que no lo reconoce bien. Pongo una captura a ver si se puede apreciar comparandolo con una pestaña de mozilla:

14
Claro, pero supongo que si lo subo envio a traves de imgur, el mismo programa lo editará algo, por que se ve peor en imgur de lo que lo veo en mi reproductor.

Te lo pongo de todos modos:


https://imgur.com/iTp7fgZ
15
Hola Xarqus,

Creo que te refieres a esto, pero aún así se ve bastante peor de lo que debería.


SMF spam blocked by CleanTalk
Powered by SMFPacks Menu Editor Mod
Powered by SMFPacks Media Embedder