videoedicion.org (v8.2)

Imagen, Audio y Vídeo Digital => Compresión y formatos de vídeo => Mensaje iniciado por: miguelsat en 13 de junio de 2021, 19:06:35

Título: Resolución 1280x960
Publicado por: miguelsat en 13 de junio de 2021, 19:06:35
Hola, alguien sabría decirme por qué, en un video que tengo con resolución 1280x960, al abrirlo, se expande, ocupándome la pantalla entera como si tuviera resolución 1920x1080p? Gracias.
Título: Re:Resolución 1280x960
Publicado por: Poucopelo en 14 de junio de 2021, 00:01:18
Los reproductores de vídeo suelen reescalar la imagen visible hasta llenar la pantalla, cuando se pone a pantalla completa.
Si está bien configurado mantendrá la proporción sin deformar la imagen.

Si tu reproductor estira horizontalmente la imagen, es que tiene mal ajustada la proporción.

Saludos.
Título: Re:Resolución 1280x960
Publicado por: miguelsat en 14 de junio de 2021, 18:01:16
Ningún video que no sea full hd, me ocupa la pantalla completa, utilizo el K lite codec pack, solo los 1080p me ocupan toda la pantalla, y este video no se porque tambien lo hace.
Título: Re:Resolución 1280x960
Publicado por: Poucopelo en 15 de junio de 2021, 00:06:46
Dos cosas:
¿Puedes poner aquí los datos del vídeo?. Por favor usa MediaInfo en Modo Texto.
¿Qué reproductor utilizas?.

Saludos.
Título: Re:Resolución 1280x960
Publicado por: miguelsat en 15 de junio de 2021, 01:02:15
Si, ahi están, utilizo el k lite codec.

General
Complete name                  : C:\Users\Miguel\Downloads\qBittorrent\[NHK] モーガン・フリーマン 時空を超えて「パラレルワールドは存在するのか?」 (2016.05.13).mp4
Format                        : MPEG-4
Format profile                : Base Media
Codec ID                      : isom (isom/iso2/avc1/mp41)
File size                      : 766 MiB
Duration                      : 44 min 0 s
Overall bit rate              : 2 433 kb/s
Writing application            : Lavf55.19.104

Video
ID                            : 1
Format                        : AVC
Format/Info                    : Advanced Video Codec
Format profile                : Baseline@L1.3
Format settings                : 2 Ref Frames
Format settings, CABAC        : No
Format settings, Reference fra : 2 frames
Codec ID                      : avc1
Codec ID/Info                  : Advanced Video Coding
Duration                      : 44 min 0 s
Bit rate                      : 2 300 kb/s
Width                          : 1 280 pixels
Height                        : 960 pixels
Display aspect ratio          : 16:9
Frame rate mode                : Constant
Frame rate                    : 23.976 (23976/1000) FPS
Color space                    : YUV
Chroma subsampling            : 4:2:0
Bit depth                      : 8 bits
Scan type                      : Progressive
Bits/(Pixel*Frame)            : 0.078
Stream size                    : 724 MiB (95%)
Writing library                : x264 core 140 r2377 1ca7bb9
Encoding settings              : cabac=0 / ref=2 / deblock=1:0:0 / analyse=0x1:0x111 / me=umh / subme=6 / psy=1 / psy_rd=1.00:0.00 / mixed_ref=1 / me_range=16 / chroma_me=1 / trellis=0 / 8x8dct=0 / cqm=0 / deadzone=21,11 / fast_pskip=1 / chroma_qp_offset=-2 / threads=12 / lookahead_threads=2 / sliced_threads=0 / nr=0 / decimate=1 / interlaced=0 / bluray_compat=0 / constrained_intra=0 / bframes=0 / weightp=0 / keyint=250 / keyint_min=23 / scenecut=40 / intra_refresh=0 / rc_lookahead=40 / rc=2pass / mbtree=1 / bitrate=2300 / ratetol=1.0 / qcomp=0.60 / qpmin=0 / qpmax=69 / qpstep=4 / cplxblur=20.0 / qblur=0.5 / ip_ratio=1.40 / aq=1:1.00
Codec configuration box        : avcC

Audio
ID                            : 2
Format                        : AAC LC
Format/Info                    : Advanced Audio Codec Low Complexity
Codec ID                      : mp4a-40-2
Duration                      : 43 min 59 s
Duration_LastFrame            : -20 ms
Bit rate mode                  : Constant
Bit rate                      : 128 kb/s
Channel(s)                    : 2 channels
Channel layout                : L R
Sampling rate                  : 44.1 kHz
Frame rate                    : 43.066 FPS (1024 SPF)
Compression mode              : Lossy
Stream size                    : 40.2 MiB (5%)
Default                        : Yes
Alternate group                : 1
Título: Re:Resolución 1280x960
Publicado por: Poucopelo en 15 de junio de 2021, 09:24:21
Bien. El problema está en el parámetro Display aspect ratio, que está a 16:9, cuando debería estar a 4:3.
Eso hace que la imagen se encoja en vertical.

Cita de: miguelsat en 15 de junio de 2021, 01:02:15utilizo el k lite codec
No uso esa herramienta (me suena de hace años a paquete de códecs), si es un reproductor de video, en algún sitio debe tener el ajuste de proporción de visualización.

Por ejemplo en VLC sería:
(https://img-17.ccm2.net/-8fpCmUUARMuSMzdjChnDFgTDWY=/4f43a49e4c2b42b79e7d7f10493c8369/ccm-faq/HhB8vHlm3qTpLK0wIjDiL-vlc-proporcion.png)

Saludos.
Título: Re:Resolución 1280x960
Publicado por: miguelsat en 18 de junio de 2021, 09:58:44
Como sabes que hay que ponerlo a 4:3? Cuando en las propiedades pone 16:9? Es un video de 720p pero con un poco mas de altura, no creo que haya que ponerlo en 4:3.

Cuando un video antiguo de 4:3, lo estiras a 16:9, se nota mucho que se ensancha todo y eso no le pasa a este video.
Título: Re:Resolución 1280x960
Publicado por: Poucopelo en 18 de junio de 2021, 10:03:22
Porque 4:3 es 1,3333 y 1280:960 es 1,3333.

Saludos.